<?xml version="1.0" standalone="no"?>
<!DOCTYPE svg PUBLIC "-//W3C//DTD SVG 1.1//EN" "http://www.w3.org/Graphics/SVG/1.1/DTD/svg11.dtd" >
<svg xmlns="http://www.w3.org/2000/svg" xmlns:xlink="http://www.w3.org/1999/xlink" version="1.1">
<metadata></metadata>
<defs>
<font id="fresh_sansmedium" horiz-adv-x="1206" >
<font-face units-per-em="2048" ascent="1536" descent="-512" />
<missing-glyph horiz-adv-x="428" />
<glyph unicode="&#xfb01;" horiz-adv-x="1069" d="M25 803v141q0 18 12 30.5t31 12.5h133v156q0 160 97 253t253 93q74 0 149.5 -25.5t122.5 -68.5q14 -12 15.5 -32t-11.5 -38l-75 -106q-14 -20 -35 -21.5t-45 16.5q-25 16 -49.5 24.5t-47.5 8.5q-49 0 -79.5 -34.5t-30.5 -92.5v-133h463q18 0 30.5 -12t12.5 -31v-901 q0 -18 -12.5 -30.5t-30.5 -12.5h-180q-16 0 -29.5 13.5t-13.5 29.5v723h-240v-723q0 -16 -12.5 -29.5t-28.5 -13.5h-180q-16 0 -29.5 13.5t-13.5 29.5v723h-133q-18 0 -30.5 10t-12.5 27z" />
<glyph unicode="&#xfb02;" horiz-adv-x="1161" d="M25 809v135q0 18 12 30.5t31 12.5h133v152q0 137 73.5 216t188.5 79h84q31 0 47 -15.5t16 -44.5v-137q0 -23 -11 -35t-34 -12h-18q-41 0 -61.5 -20.5t-20.5 -63.5v-119h240v404q0 16 13 29.5t30 13.5h180q18 0 30.5 -12.5t12.5 -30.5v-1094q0 -37 19.5 -57.5t53.5 -20.5 h60q18 0 29.5 -10t11.5 -29v-129q0 -25 -14.5 -38t-38.5 -13h-131q-125 0 -190.5 63.5t-65.5 182.5v520h-240v-723q0 -16 -12.5 -29.5t-28.5 -13.5h-180q-16 0 -29.5 13.5t-13.5 29.5v723h-133q-18 0 -30.5 12.5t-12.5 30.5z" />
<glyph unicode="&#xfb03;" horiz-adv-x="1572" d="M25 809v135q0 18 12 30.5t31 12.5h133v152q0 137 73.5 216t188.5 79h84q31 0 47 -15.5t16 -44.5v-137q0 -23 -11 -35t-34 -12h-18q-41 0 -61.5 -20.5t-20.5 -63.5v-119h240v156q0 160 97 253t253 93q76 0 150.5 -25.5t121.5 -68.5q14 -12 15 -32t-11 -38l-76 -106 q-14 -18 -33.5 -19.5t-43.5 14.5q-25 16 -49.5 24.5t-47.5 8.5q-49 0 -79.5 -33.5t-30.5 -93.5v-133h463q16 0 28.5 -12t12.5 -31v-901q0 -16 -12.5 -29.5t-28.5 -13.5h-181q-16 0 -29.5 13.5t-13.5 29.5v723h-239v-723q0 -18 -12.5 -30.5t-30.5 -12.5h-180 q-16 0 -29.5 13.5t-13.5 29.5v723h-240v-723q0 -16 -12.5 -29.5t-28.5 -13.5h-180q-16 0 -29.5 13.5t-13.5 29.5v723h-133q-18 0 -30.5 12.5t-12.5 30.5z" />
<glyph unicode="&#xfb04;" horiz-adv-x="1662" d="M25 809v135q0 18 12 30.5t31 12.5h133v152q0 137 73.5 216t188.5 79h84q31 0 47 -15.5t16 -44.5v-137q0 -23 -11 -35t-34 -12h-18q-41 0 -61.5 -20.5t-20.5 -63.5v-119h240v152q0 137 73.5 216t188.5 79h86q31 0 46 -15.5t15 -44.5v-137q0 -23 -11 -35t-34 -12h-18 q-41 0 -60.5 -20.5t-19.5 -63.5v-119h239v404q0 16 13.5 29.5t29.5 13.5h181q16 0 28.5 -13.5t12.5 -29.5v-1094q0 -37 19 -57.5t54 -20.5h62q18 0 28.5 -10t10.5 -29v-129q0 -25 -13.5 -38t-40.5 -13h-129q-125 0 -190.5 62.5t-65.5 183.5v520h-239v-723q0 -18 -12.5 -30.5 t-30.5 -12.5h-180q-16 0 -29.5 13.5t-13.5 29.5v723h-240v-723q0 -16 -12.5 -29.5t-28.5 -13.5h-180q-16 0 -29.5 13.5t-13.5 29.5v723h-133q-18 0 -30.5 12.5t-12.5 30.5z" />
<glyph horiz-adv-x="0" />
<glyph horiz-adv-x="682" />
<glyph unicode=" "  horiz-adv-x="428" />
<glyph unicode="&#x09;" horiz-adv-x="428" />
<glyph unicode="&#xa0;" horiz-adv-x="428" />
<glyph unicode="!" horiz-adv-x="567" d="M102 152q0 76 53.5 129t127.5 53q76 0 129 -53t53 -129q0 -74 -53.5 -127.5t-128.5 -53.5q-74 0 -127.5 53.5t-53.5 127.5zM143 1391q0 16 13.5 29.5t31.5 13.5h191q18 0 31.5 -13.5t13.5 -29.5l-4 -863q0 -16 -13.5 -29.5t-31.5 -13.5h-182q-18 0 -30.5 12.5t-12.5 30.5 z" />
<glyph unicode="&#x22;" horiz-adv-x="876" d="M109 854v539q0 16 12 28.5t31 12.5h176q18 0 30.5 -12.5t12.5 -28.5v-539q0 -18 -12.5 -30.5t-30.5 -12.5h-176q-18 0 -30.5 12.5t-12.5 30.5zM506 854v539q0 16 13 28.5t30 12.5h178q16 0 29.5 -12.5t13.5 -28.5v-539q0 -18 -12.5 -30.5t-30.5 -12.5h-178 q-18 0 -30.5 12.5t-12.5 30.5z" />
<glyph unicode="#" horiz-adv-x="1286" d="M68 465v78q0 16 12 28.5t31 12.5h219v264h-219q-18 0 -30.5 12t-12.5 31v78q0 16 12 28.5t31 12.5h219v383q0 16 13 28.5t30 12.5h86q16 0 28.5 -12.5t12.5 -28.5v-383h288v383q0 16 12.5 28.5t30.5 12.5h84q18 0 30.5 -12.5t12.5 -28.5v-383h218q16 0 29.5 -12.5 t13.5 -28.5v-78q0 -18 -12.5 -30.5t-30.5 -12.5h-218v-264h218q16 0 29.5 -12.5t13.5 -28.5v-78q0 -18 -12.5 -30.5t-30.5 -12.5h-218v-379q0 -18 -12 -30.5t-31 -12.5h-84q-18 0 -30.5 12.5t-12.5 30.5v379h-288v-379q0 -16 -12.5 -29.5t-28.5 -13.5h-86q-16 0 -29.5 13.5 t-13.5 29.5v379h-219q-18 0 -30.5 12t-12.5 31zM500 584h288v264h-288v-264z" />
<glyph unicode="$" horiz-adv-x="1212" d="M64 275.5q-1 29.5 26 50.5l107 82q23 18 44 15t44 -28q63 -72 150 -109.5t192 -37.5q109 0 175 46t66 116q0 63 -47 104t-155 70l-242 63q-160 41 -243 133t-83 230q0 154 114 262t300 133v123q0 16 12.5 28.5t28.5 12.5h137q16 0 28.5 -12.5t12.5 -28.5v-125 q104 -14 191.5 -54t148.5 -100q27 -25 29 -50t-19 -46l-92 -90q-18 -16 -41.5 -14t-46.5 22q-63 55 -140 85t-157 30q-102 0 -166.5 -43t-64.5 -115q0 -53 38 -89t115 -56l262 -70q182 -49 270.5 -141t88.5 -238q0 -152 -112.5 -264.5t-303.5 -140.5v-140q0 -16 -12.5 -28.5 t-28.5 -12.5h-137q-16 0 -28.5 12.5t-12.5 28.5v138q-133 14 -242.5 65t-177.5 129q-27 25 -28 54.5z" />
<glyph unicode="%" horiz-adv-x="1452" d="M63 1077q0 168 76 269.5t207 101.5t208 -101.5t77 -269.5q0 -170 -77 -272.5t-208 -102.5t-207 102.5t-76 272.5zM190 20.5q-10 20.5 7 45.5l907 1331q14 23 27.5 30t35.5 7h52q31 0 41 -20.5t-7 -45.5l-907 -1331q-14 -23 -27 -30t-36 -7h-54q-29 0 -39 20.5zM221 1073 q0 -117 32 -178t93 -61t94 61t33 178q0 119 -33 181.5t-94 62.5q-59 0 -92 -62.5t-33 -181.5zM821 356q0 170 76 270.5t207 100.5t206.5 -101.5t75.5 -269.5q0 -172 -75.5 -273t-206.5 -101t-207 101t-76 273zM979 350q0 -119 31.5 -179t93.5 -60q61 0 93 61t32 178 q0 121 -32 183.5t-93 62.5t-93 -62.5t-32 -183.5z" />
<glyph unicode="&#x26;" horiz-adv-x="1443" d="M61 387q0 115 58.5 209t179.5 174l45 31q-61 63 -95 141t-34 158q0 152 114.5 258t286.5 106q168 0 273.5 -94t105.5 -237q0 -98 -58 -183.5t-171 -150.5l-43 -25l262 -266q31 68 48.5 139.5t25.5 153.5q2 18 13 27.5t34 9.5h176q18 0 30.5 -12.5t12.5 -30.5 q-4 -82 -49 -222.5t-107 -250.5l263 -267q16 -18 9 -36.5t-28 -18.5h-252q-23 0 -36 5.5t-25 19.5l-109 112q-98 -84 -206.5 -125t-235.5 -41q-209 0 -348.5 119t-139.5 297zM336 401q0 -86 69.5 -144t176.5 -58q66 0 131 26.5t118 73.5l-331 342l-27 -18 q-70 -49 -103.5 -105t-33.5 -117zM471 1110q0 -41 22.5 -85t67.5 -87l12 -12l45 28q63 39 95 82t32 90q0 55 -37.5 91t-93.5 36q-57 0 -100 -42t-43 -101z" />
<glyph unicode="'" horiz-adv-x="530" d="M81 890q-3 18 9 36l113 180q-49 25 -78 70t-29 98q0 78 55.5 133t135.5 55q82 0 137 -57t55 -143q0 -98 -67.5 -208t-171.5 -194q-29 -25 -55.5 -30t-51.5 10l-29 18q-20 14 -23 32z" />
<glyph unicode="(" horiz-adv-x="628" d="M66 645q0 217 88 454.5t221 397.5q18 20 36.5 29.5t39.5 9.5h98q16 0 25.5 -8t9.5 -21q0 -8 -4.5 -19t-20.5 -42q-102 -193 -153.5 -393.5t-51.5 -407.5t51.5 -407.5t153.5 -393.5q16 -31 20.5 -42t4.5 -19q0 -12 -9.5 -20.5t-25.5 -8.5h-98q-20 0 -39 9.5t-37 29.5 q-133 160 -221 397.5t-88 454.5z" />
<glyph unicode=")" horiz-adv-x="628" d="M45 -217q0 8 4.5 19t20.5 42q102 193 153 393.5t51 407.5t-51 407.5t-153 393.5q-16 31 -20.5 42t-4.5 19q0 12 9 20.5t26 8.5h98q20 0 39 -9t37 -30q133 -160 221 -397.5t88 -454.5t-88 -454.5t-221 -397.5q-18 -20 -36.5 -29.5t-39.5 -9.5h-98q-16 0 -25.5 8.5 t-9.5 20.5z" />
<glyph unicode="*" horiz-adv-x="1036" d="M80 841q12 38 47 60q12 6 46 16.5t124 32.5q78 20 107.5 28.5t44.5 14.5q-16 8 -54.5 19.5t-130.5 36.5q-74 20 -100.5 28t-36.5 13q-35 23 -47 61.5t6 77.5q20 37 59 48t76 -7q10 -6 38 -27.5t101 -83.5q61 -49 86 -68.5t37 -29.5q-29 125 -46 214t-17 107q0 41 29.5 71 t70.5 30t71 -30t30 -71q0 -14 -9.5 -62t-36.5 -169q-8 -45 -12 -62.5t-6 -27.5q12 8 33.5 25.5t77.5 64.5q80 66 109.5 89.5t41.5 29.5q37 18 76 7t59 -48q16 -39 5 -78t-48 -61q-10 -4 -36.5 -12.5t-100.5 -28.5q-90 -25 -128 -36.5t-54 -19.5q14 -6 43 -14t102 -27 q94 -25 128 -35t46 -16q37 -23 48.5 -60.5t-5.5 -76.5q-20 -37 -59 -49.5t-76 8.5q-12 6 -45 31.5t-119 95.5q-49 41 -69.5 56.5t-30.5 23.5q41 -184 53.5 -244.5t12.5 -77.5q0 -43 -29 -71.5t-72 -28.5t-71.5 28.5t-28.5 71.5q0 18 17.5 107.5t45.5 214.5 q-10 -8 -30.5 -24.5t-71.5 -57.5q-84 -70 -116 -94.5t-44 -30.5q-37 -20 -76 -8t-59 49q-18 39 -6 77z" />
<glyph unicode="+" horiz-adv-x="1179" d="M66 635v172q0 18 12 31.5t31 13.5h344v356q0 18 12.5 30.5t30.5 12.5h186q18 0 30.5 -12t12.5 -31v-356h346q18 0 30.5 -13.5t12.5 -31.5v-172q0 -18 -12 -31.5t-31 -13.5h-346v-357q0 -18 -12.5 -31.5t-30.5 -13.5h-186q-18 0 -30.5 13.5t-12.5 31.5v357h-344 q-18 0 -30.5 13t-12.5 32z" />
<glyph unicode="," horiz-adv-x="522" d="M63 -218q-3 18 9 36l108 174q-47 23 -75.5 65.5t-28.5 94.5q0 78 52 130t130 52t132 -55.5t54 -137.5q0 -94 -66.5 -200.5t-164.5 -186.5q-33 -25 -56.5 -29t-45.5 11l-25 16q-20 12 -23 30z" />
<glyph unicode="-" horiz-adv-x="768" d="M102 500v184q0 18 12.5 31.5t30.5 13.5h476q18 0 31.5 -13.5t13.5 -31.5v-184q0 -18 -13.5 -31.5t-31.5 -13.5h-476q-18 0 -30.5 13t-12.5 32z" />
<glyph unicode="." horiz-adv-x="509" d="M74 152q0 76 52 129t128 53t129 -53t53 -129q0 -74 -53 -127.5t-129 -53.5q-74 0 -127 53.5t-53 127.5z" />
<glyph unicode="/" horiz-adv-x="966" d="M60 18.5q-9 18.5 1 40.5l652 1342q10 18 20 25.5t29 7.5h108q27 0 37.5 -17.5t-2.5 -40.5l-645 -1341q-8 -20 -20.5 -27.5t-32.5 -7.5h-111q-27 0 -36 18.5z" />
<glyph unicode="0" horiz-adv-x="1251" d="M78 721q0 346 145.5 543.5t403.5 197.5q256 0 401.5 -197.5t145.5 -543.5q0 -350 -144.5 -550t-402.5 -200t-403.5 200t-145.5 550zM354 713q0 -248 71 -381t202 -133q129 0 199.5 133t70.5 381q0 254 -70.5 388t-199.5 134q-131 0 -202 -134t-71 -388z" />
<glyph unicode="1" horiz-adv-x="675" d="M31 1077v135q0 23 11 35.5t34 12.5h28q74 0 125.5 32.5t77.5 100.5q10 23 25.5 32t38.5 9h108q18 0 30.5 -12.5t12.5 -30.5v-1346q0 -18 -13 -31.5t-32 -13.5h-176q-18 0 -30.5 13.5t-12.5 31.5v991h-184q-18 0 -30.5 11.5t-12.5 29.5z" />
<glyph unicode="2" horiz-adv-x="1171" d="M57 1061q43 178 185.5 289.5t339.5 111.5q219 0 359 -121.5t140 -320.5q0 -131 -86 -263t-282 -298l-264 -223h612q18 0 30.5 -12.5t12.5 -30.5v-150q0 -18 -12.5 -30.5t-30.5 -12.5h-932q-16 0 -29.5 13.5t-13.5 29.5v125q0 23 9 42t26 34l405 360q166 147 224.5 233.5 t58.5 168.5q0 96 -65.5 155.5t-168.5 59.5q-55 0 -103 -19.5t-85 -56.5q-23 -25 -42 -56.5t-38 -80.5q-12 -35 -32.5 -46.5t-49.5 -3.5l-133 37q-23 6 -32 24.5t-3 41.5z" />
<glyph unicode="3" horiz-adv-x="1212" d="M43 438v31q0 16 12.5 27.5t28.5 11.5h186q18 0 30.5 -11.5t12.5 -27.5v-14q0 -113 78 -184.5t205 -71.5q121 0 195.5 64.5t74.5 166.5q0 98 -71.5 157.5t-190.5 59.5h-57q-16 0 -29.5 13.5t-13.5 31.5v121q0 20 13.5 33.5t31.5 13.5h43q96 0 158.5 53.5t62.5 137.5 q0 82 -59.5 134t-153.5 52q-43 0 -82 -13.5t-72 -39.5q-25 -20 -47 -48t-41 -59q-14 -23 -28.5 -29t-34.5 5l-125 55q-23 10 -31 28.5t0 39.5q51 129 179 207.5t300 78.5q199 0 326 -103.5t127 -268.5q0 -102 -58.5 -184.5t-154.5 -114.5q131 -33 208 -129.5t77 -233.5 q0 -205 -150.5 -331t-394.5 -126q-246 0 -400.5 130t-154.5 337z" />
<glyph unicode="4" horiz-adv-x="1214" d="M29 430v137q0 35 6 57.5t20 45.5l551 729q12 16 28.5 25.5t35.5 9.5h256q18 0 31.5 -12.5t13.5 -30.5v-789h151q18 0 31.5 -13.5t13.5 -31.5v-127q0 -18 -13 -31.5t-32 -13.5h-151v-340q0 -18 -13.5 -31.5t-31.5 -13.5h-178q-18 0 -32 13.5t-14 31.5v340h-628 q-18 0 -31.5 13.5t-13.5 31.5zM272 602h430v569z" />
<glyph unicode="5" horiz-adv-x="1181" d="M50 252.5q5 21.5 26 38.5l98 80q23 18 48.5 15t41.5 -24q74 -84 143.5 -118.5t159.5 -34.5q123 0 206 74.5t83 185.5t-78 180.5t-196 69.5q-61 0 -118.5 -21.5t-107.5 -62.5q-12 -10 -24.5 -13.5t-28.5 1.5l-158 34q-16 4 -25 15.5t-7 27.5l49 689q2 18 14 31.5t31 13.5 h799q18 0 31.5 -13.5t13.5 -31.5v-156q0 -18 -13.5 -31.5t-31.5 -13.5h-631l-27 -332q63 43 137 64.5t156 21.5q209 0 348 -130t139 -335q0 -215 -157.5 -360.5t-401.5 -145.5q-168 0 -303 64.5t-207 177.5q-14 18 -9 39.5z" />
<glyph unicode="6" horiz-adv-x="1214" d="M68 518q0 201 116.5 409t409.5 486q10 10 24.5 15.5t36.5 5.5h209q27 0 34 -25t-11 -43q-172 -172 -296 -308t-163 -198q61 43 127 64.5t141 21.5q205 0 345.5 -133t140.5 -330q0 -217 -158 -364.5t-395 -147.5q-244 0 -402.5 156t-158.5 391zM350 473q0 -113 81 -192.5 t198 -79.5t196.5 79.5t79.5 192.5q0 115 -78.5 192.5t-197.5 77.5t-199 -78.5t-80 -191.5z" />
<glyph unicode="7" horiz-adv-x="1110" d="M35 1233v156q0 18 14 31.5t33 13.5h940q18 0 31.5 -12.5t13.5 -30.5v-97q0 -27 -4 -46t-19 -44l-552 -1173q-10 -18 -20.5 -24.5t-31.5 -6.5h-215q-25 0 -35 18.5t3 40.5l567 1129h-678q-18 0 -32.5 13t-14.5 32z" />
<glyph unicode="8" horiz-adv-x="1282" d="M70 414q0 121 72.5 218t191.5 140q-90 41 -143.5 123t-53.5 180q0 170 141.5 278.5t362.5 108.5t362.5 -108.5t141.5 -278.5q0 -100 -53.5 -181t-143.5 -122q119 -43 191.5 -140t72.5 -218q0 -195 -157.5 -319t-413.5 -124t-413.5 124t-157.5 319zM350 422 q0 -98 82 -163.5t209 -65.5t209 65.5t82 163.5q0 100 -82 165.5t-209 65.5t-209 -65.5t-82 -165.5zM397 1061q0 -84 70 -139.5t174 -55.5q106 0 176 55.5t70 139.5t-69.5 138t-176.5 54q-106 0 -175 -55t-69 -137z" />
<glyph unicode="9" horiz-adv-x="1214" d="M33 950q0 217 157.5 364.5t395.5 147.5q244 0 402.5 -155.5t158.5 -391.5q0 -201 -116.5 -408.5t-409.5 -486.5q-10 -10 -24.5 -15t-37.5 -5h-209q-27 0 -34 24.5t12 43.5q172 172 296 308t162 197q-61 -43 -126.5 -64.5t-141.5 -21.5q-205 0 -345 133.5t-140 329.5z M309 961q0 -113 79 -192t200 -79q117 0 196.5 80t79.5 191q0 113 -79.5 192.5t-196.5 79.5t-198 -79.5t-81 -192.5z" />
<glyph unicode=":" horiz-adv-x="559" d="M98 152q0 76 53.5 129t127.5 53q76 0 129 -53t53 -129q0 -74 -53.5 -127.5t-128.5 -53.5q-74 0 -127.5 53.5t-53.5 127.5zM98 799q0 76 53.5 129t127.5 53q76 0 129 -53t53 -129t-53.5 -128.5t-128.5 -52.5q-74 0 -127.5 53.5t-53.5 127.5z" />
<glyph unicode=";" horiz-adv-x="565" d="M85.5 -218q-3.5 18 8.5 36l109 174q-47 23 -76 65.5t-29 94.5q0 78 52.5 130t130.5 52t132 -55.5t54 -137.5q0 -94 -66.5 -200.5t-164.5 -186.5q-33 -25 -56.5 -29t-46.5 11l-24 16q-20 12 -23.5 30zM100 799q0 76 52.5 129t128.5 53t129 -53t53 -129t-53.5 -128.5 t-128.5 -52.5q-76 0 -128.5 52.5t-52.5 128.5z" />
<glyph unicode="&#x3c;" horiz-adv-x="1189" d="M59 709q0 43 14.5 69.5t43.5 40.5l868 422q31 14 53.5 3t22.5 -44v-192q0 -20 -13.5 -35t-41.5 -27l-541 -239l541 -238q33 -14 44 -28.5t11 -34.5v-193q0 -33 -22.5 -44t-53.5 5l-868 422q-29 14 -43.5 42t-14.5 71z" />
<glyph unicode="=" horiz-adv-x="1265" d="M109 393v170q0 18 13 31.5t32 13.5h958q18 0 31.5 -13t13.5 -32v-170q0 -18 -13.5 -30.5t-31.5 -12.5h-958q-18 0 -31.5 12.5t-13.5 30.5zM109 868v170q0 18 13 31.5t32 13.5h958q18 0 31.5 -13t13.5 -32v-170q0 -18 -13.5 -30.5t-31.5 -12.5h-958q-18 0 -31.5 12.5 t-13.5 30.5z" />
<glyph unicode="&#x3e;" horiz-adv-x="1189" d="M129 213v193q0 18 11.5 32.5t43.5 30.5l543 238l-543 239q-31 12 -43 26.5t-12 35.5v192q0 33 23.5 44t52.5 -3l870 -422q29 -14 42 -41.5t13 -68.5q0 -43 -14 -71t-43 -42l-868 -422q-29 -16 -52.5 -5t-23.5 44z" />
<glyph unicode="?" horiz-adv-x="1011" d="M51.5 1190.5q-1.5 25.5 18.5 58.5q63 98 174.5 155.5t251.5 57.5q197 0 317.5 -108.5t120.5 -270.5q0 -82 -35 -160.5t-139 -203.5q-72 -84 -92.5 -125t-20.5 -76v-14q0 -18 -12 -29.5t-29 -11.5h-180q-16 0 -28.5 12t-12.5 31v45q0 55 27.5 113.5t113.5 162.5 q78 92 101.5 140.5t23.5 93.5q0 68 -49 112t-127 44q-59 0 -111.5 -32t-99.5 -95q-16 -23 -39.5 -26t-48.5 15l-94 66q-29 20 -30.5 45.5zM336 152q0 76 53 129t129 53q74 0 127 -53t53 -129q0 -74 -53 -127.5t-127 -53.5q-76 0 -129 53.5t-53 127.5z" />
<glyph unicode="@" horiz-adv-x="2000" d="M68 494q0 201 71.5 374.5t204.5 302.5t310 199t374 70q182 0 347 -61.5t288 -174.5q127 -119 194.5 -277.5t67.5 -342.5q0 -258 -111.5 -418t-289.5 -160q-94 0 -159 44t-91 124q-45 -78 -129 -123t-184 -45q-193 0 -325 137.5t-132 341.5q0 203 132 338t325 135 q88 0 165.5 -36.5t128.5 -104.5v64q0 18 12.5 30.5t30.5 12.5h136q20 0 32.5 -12.5t12.5 -30.5v-541q0 -68 20.5 -97.5t65.5 -29.5q70 0 112.5 101.5t42.5 279.5q0 289 -197.5 474t-494.5 185q-152 0 -291 -56t-243 -161q-102 -104 -155.5 -241.5t-53.5 -296.5 q0 -154 58 -292t165 -245q109 -104 248 -161.5t291 -57.5q80 0 155.5 13.5t140.5 37.5q29 12 58 26.5t55 30.5q20 14 35.5 16.5t30.5 -7.5l106 -72q12 -6 13 -18.5t-7 -18.5q-102 -94 -258.5 -144t-349.5 -50q-195 0 -369 69.5t-307 198.5q-137 131 -209.5 305t-72.5 365z M756 489q0 -106 66.5 -177.5t166.5 -71.5t167 71.5t67 177.5q0 109 -66.5 179.5t-167.5 70.5q-102 0 -167.5 -70.5t-65.5 -179.5z" />
<glyph unicode="A" horiz-adv-x="1378" d="M20 18.5q-10 18.5 0 44.5l476 1328q6 20 22.5 31.5t34.5 11.5h274q18 0 35 -11.5t23 -31.5l477 -1325q10 -29 -1 -47.5t-38 -18.5h-215q-16 0 -27.5 9t-17.5 30l-107 309h-548l-105 -309q-6 -18 -18.5 -28.5t-26.5 -10.5h-203q-25 0 -35 18.5zM485 580h392l-193 559h-10z " />
<glyph unicode="B" horiz-adv-x="1388" d="M133 43v1348q0 18 12.5 30.5t30.5 12.5h625q215 0 338 -101.5t123 -261.5q0 -102 -51.5 -180t-141.5 -117q127 -43 196.5 -137t69.5 -219q0 -178 -132 -298t-347 -120h-680q-18 0 -30.5 12.5t-12.5 30.5zM408 217h405q102 0 170 59.5t68 153.5t-68 153.5t-170 59.5h-405 v-426zM408 850h356q100 0 157.5 49t57.5 135q0 84 -57.5 133.5t-157.5 49.5h-356v-367z" />
<glyph unicode="C" horiz-adv-x="1517" d="M55 717q0 315 218.5 530t535.5 215q242 0 429 -120.5t255 -323.5q6 -20 1 -30.5t-24 -14.5l-204 -51q-16 -4 -26.5 2t-18.5 26q-61 123 -167 190.5t-243 67.5q-203 0 -336 -140t-133 -351t133 -351.5t336 -140.5q137 0 242.5 67.5t167.5 190.5q8 20 18 26.5t27 2.5 l204 -51q18 -4 23.5 -14.5t-0.5 -30.5q-68 -203 -255 -324t-429 -121q-317 0 -535.5 215.5t-218.5 530.5z" />
<glyph unicode="D" horiz-adv-x="1509" d="M133 45v1346q0 18 12.5 30.5t30.5 12.5h537q336 0 537.5 -196t201.5 -519q0 -324 -202.5 -521.5t-536.5 -197.5h-537q-18 0 -30.5 13.5t-12.5 31.5zM408 252h309q199 0 323.5 131t124.5 336q0 207 -125 335t-323 128h-309v-930z" />
<glyph unicode="E" horiz-adv-x="1288" d="M133 45v1346q0 18 12.5 30.5t30.5 12.5h1010q18 0 30.5 -13.5t12.5 -31.5v-164q0 -18 -12.5 -30.5t-30.5 -12.5h-778v-338h405q18 0 30.5 -13.5t12.5 -31.5v-156q0 -18 -12.5 -31.5t-30.5 -13.5h-405v-346h790q18 0 31.5 -12.5t13.5 -30.5v-164q0 -18 -13 -31.5 t-32 -13.5h-1022q-18 0 -30.5 13.5t-12.5 31.5z" />
<glyph unicode="F" horiz-adv-x="1220" d="M133 45v1346q0 18 12.5 30.5t30.5 12.5h967q18 0 31.5 -13.5t13.5 -31.5v-164q0 -18 -13.5 -30.5t-31.5 -12.5h-735v-406h548q18 0 30.5 -12.5t12.5 -30.5v-158q0 -18 -12 -31.5t-31 -13.5h-548v-485q0 -18 -13.5 -31.5t-32.5 -13.5h-186q-18 0 -30.5 13.5t-12.5 31.5z " />
<glyph unicode="G" horiz-adv-x="1599" d="M55 717q0 315 220.5 530t541.5 215q244 0 435.5 -120.5t267.5 -323.5q6 -16 1 -28.5t-24 -16.5l-203 -51q-16 -4 -26.5 2t-18.5 26q-66 125 -176.5 191.5t-255.5 66.5q-203 0 -339 -143t-136 -352q0 -213 135 -352.5t344 -139.5q141 0 255 74t169 201h-393 q-18 0 -31.5 13t-13.5 30v135q0 18 13.5 30.5t31.5 12.5h616q18 0 31.5 -12.5t13.5 -30.5v-629q0 -18 -13 -31.5t-32 -13.5h-161q-18 0 -31.5 13.5t-13.5 31.5v148q-80 -111 -200 -166.5t-278 -55.5q-311 0 -520 214t-209 532z" />
<glyph unicode="H" horiz-adv-x="1527" d="M133 45v1346q0 18 12.5 30.5t30.5 12.5h189q18 0 30.5 -12.5t12.5 -30.5v-547h712v547q0 18 12.5 30.5t30.5 12.5h189q18 0 30.5 -12.5t12.5 -30.5v-1346q0 -18 -12.5 -31.5t-30.5 -13.5h-189q-18 0 -30.5 13.5t-12.5 31.5v553h-712v-553q0 -18 -12.5 -31.5t-30.5 -13.5 h-189q-18 0 -30.5 13.5t-12.5 31.5z" />
<glyph unicode="I" horiz-adv-x="540" d="M133 45v1346q0 18 12.5 30.5t30.5 12.5h189q18 0 30.5 -12.5t12.5 -30.5v-1346q0 -18 -12.5 -31.5t-30.5 -13.5h-189q-18 0 -30.5 13.5t-12.5 31.5z" />
<glyph unicode="J" horiz-adv-x="1249" d="M39 463v96q0 18 12 30.5t31 12.5h186q18 0 31.5 -12t13.5 -31v-70q0 -127 72 -198.5t199 -71.5t198.5 71.5t71.5 198.5v902q0 16 13.5 29.5t31.5 13.5h186q18 0 30.5 -12.5t12.5 -30.5v-908q0 -233 -151.5 -372.5t-394.5 -139.5q-244 0 -393.5 133.5t-149.5 358.5z" />
<glyph unicode="K" horiz-adv-x="1345" d="M133 45v1346q0 18 12.5 30.5t30.5 12.5h186q18 0 32 -13.5t14 -29.5v-541h180l428 545q16 20 34.5 29.5t45.5 9.5h211q25 0 32.5 -21t-8.5 -39l-516 -624l520 -697q14 -20 6 -36.5t-26 -16.5h-230q-29 0 -44 7t-29 28l-422 573h-182v-563q0 -18 -13.5 -31.5t-32.5 -13.5 h-186q-18 0 -30.5 13.5t-12.5 31.5z" />
<glyph unicode="L" horiz-adv-x="1150" d="M133 43v1346q0 18 12.5 31.5t30.5 13.5h186q18 0 32 -13.5t14 -31.5v-1137h682q18 0 31.5 -12.5t13.5 -30.5v-164q0 -18 -13.5 -31.5t-31.5 -13.5h-914q-18 0 -30.5 12.5t-12.5 30.5z" />
<glyph unicode="M" horiz-adv-x="1800" d="M133 43v1348q0 18 12.5 30.5t30.5 12.5h320q25 0 39 -9.5t24 -29.5l344 -758l346 758q8 20 24.5 29.5t39.5 9.5h311q18 0 30.5 -12.5t12.5 -30.5v-1348q0 -18 -12.5 -30.5t-30.5 -12.5h-184q-18 0 -30.5 12.5t-12.5 30.5v1049l-359 -770q-12 -25 -25.5 -34t-37.5 -9h-152 q-25 0 -39 10t-24 33l-357 770v-1049q0 -18 -12 -30.5t-29 -12.5h-186q-18 0 -30.5 12.5t-12.5 30.5z" />
<glyph unicode="N" horiz-adv-x="1490" d="M133 43v1348q0 18 12.5 30.5t30.5 12.5h244q20 0 36.5 -8.5t26.5 -26.5l600 -942v934q0 16 12.5 29.5t28.5 13.5h189q16 0 30.5 -13.5t14.5 -29.5v-1348q0 -18 -13.5 -30.5t-31.5 -12.5h-203q-33 0 -53.5 10t-34.5 33l-614 956v-956q0 -18 -12.5 -30.5t-30.5 -12.5h-189 q-18 0 -30.5 12.5t-12.5 30.5z" />
<glyph unicode="O" horiz-adv-x="1617" d="M55 717q0 315 218.5 530t535.5 215t535.5 -215t218.5 -530t-218.5 -530.5t-535.5 -215.5t-535.5 215t-218.5 531zM342 717q0 -211 133 -351.5t334 -140.5q203 0 336 140.5t133 351.5t-133 351t-336 140q-201 0 -334 -140t-133 -351z" />
<glyph unicode="P" horiz-adv-x="1257" d="M133 45v1346q0 18 12.5 30.5t30.5 12.5h539q233 0 372.5 -131.5t139.5 -341.5q0 -211 -139.5 -342.5t-372.5 -131.5h-307v-442q0 -18 -12.5 -31.5t-30.5 -13.5h-189q-18 0 -30.5 13.5t-12.5 31.5zM408 729h288q109 0 177.5 64.5t68.5 167.5q0 102 -68.5 166.5 t-177.5 64.5h-288v-463z" />
<glyph unicode="Q" horiz-adv-x="1617" d="M55 717q0 315 218.5 530t535.5 215t535.5 -215t218.5 -530q0 -121 -36 -233.5t-104 -207.5l140 -124q14 -14 14 -32t-14 -32l-88 -96q-12 -12 -32 -12t-32 12l-143 129q-98 -74 -215 -112t-244 -38q-317 0 -535.5 215t-218.5 531zM342 717q0 -211 133 -351.5t334 -140.5 q70 0 135.5 18.5t120.5 55.5l-272 244q-14 10 -14.5 28.5t12.5 32.5l90 98q14 14 31.5 15.5t31.5 -10.5l270 -244q31 57 47.5 120.5t16.5 133.5q0 211 -133 351t-336 140q-201 0 -334 -140t-133 -351z" />
<glyph unicode="R" horiz-adv-x="1384" d="M133 45v1346q0 18 12.5 30.5t30.5 12.5h631q221 0 358.5 -121t137.5 -312q0 -139 -79 -250.5t-218 -154.5l333 -539q12 -18 3 -37.5t-33 -19.5h-209q-27 0 -42.5 10t-29.5 35l-303 504h-317v-504q0 -18 -12.5 -31.5t-30.5 -13.5h-189q-18 0 -30.5 13.5t-12.5 31.5z M408 772h368q106 0 172 59.5t66 155.5q0 92 -64.5 148.5t-169.5 56.5h-372v-420z" />
<glyph unicode="S" horiz-adv-x="1245" d="M42 246q-1 33 26 53l114 88q25 18 47.5 15t49.5 -29q84 -82 173 -120t191 -38q117 0 187.5 49t70.5 125q0 68 -50 112t-165 74l-260 68q-170 43 -259 142.5t-89 246.5q0 188 154.5 309t392.5 121q147 0 279 -47t216 -127q29 -27 31 -52.5t-23 -49.5l-86 -88 q-25 -25 -51 -25t-57 23q-86 66 -163 95.5t-155 29.5q-109 0 -176 -46.5t-67 -123.5q0 -57 40 -94t124 -60l280 -74q195 -51 289 -152.5t94 -254.5q0 -190 -157.5 -317.5t-415.5 -127.5q-176 0 -322.5 57.5t-234.5 157.5q-27 27 -28 60z" />
<glyph unicode="T" horiz-adv-x="1265" d="M23 1225v164q0 18 12 31.5t31 13.5h1134q18 0 30.5 -13.5t12.5 -31.5v-164q0 -18 -12 -30.5t-31 -12.5h-426v-1137q0 -18 -13 -31.5t-32 -13.5h-194q-18 0 -30.5 13.5t-12.5 31.5v1137h-426q-18 0 -30.5 12.5t-12.5 30.5z" />
<glyph unicode="U" horiz-adv-x="1427" d="M121 510v881q0 18 12 30.5t31 12.5h186q18 0 31.5 -13.5t13.5 -29.5v-863q0 -143 84 -225t234 -82t234.5 82t84.5 225v863q0 16 13.5 29.5t31.5 13.5h187q16 0 29.5 -13.5t13.5 -29.5v-879q0 -252 -163 -396.5t-431 -144.5q-266 0 -429 144.5t-163 394.5z" />
<glyph unicode="V" horiz-adv-x="1378" d="M20 1368q-10 29 1.5 47.5t37.5 18.5h215q16 0 27.5 -9.5t17.5 -29.5l379 -1100h11l370 1100q6 18 18.5 28.5t26.5 10.5h203q25 0 35 -18.5t0 -45.5l-475 -1327q-6 -20 -23 -31.5t-35 -11.5h-274q-18 0 -34.5 11.5t-22.5 31.5z" />
<glyph unicode="W" horiz-adv-x="2060" d="M27 1368q-6 29 6 47.5t39 18.5h213q14 0 26.5 -12.5t18.5 -30.5l256 -1063l280 1067q6 20 17.5 29.5t29.5 9.5h246q16 0 29.5 -11.5t17.5 -27.5l281 -1059l256 1055q4 18 16.5 30.5t28.5 12.5h201q29 0 40 -16.5t3 -49.5l-344 -1325q-4 -18 -22.5 -30.5t-33.5 -12.5h-282 q-18 0 -34 11.5t-22 31.5l-256 979l-258 -979q-6 -18 -21.5 -30.5t-33.5 -12.5h-297q-18 0 -33.5 11.5t-21.5 31.5z" />
<glyph unicode="X" horiz-adv-x="1300" d="M1 19.5q-9 19.5 5 39.5l461 670l-438 645q-14 20 -3 40t35 20h226q20 0 33.5 -8.5t25.5 -26.5l313 -477l308 477q14 20 27.5 27.5t31.5 7.5h215q25 0 34 -18.5t-5 -39.5l-434 -645l456 -672q14 -20 5 -39.5t-35 -19.5h-230q-18 0 -30.5 7t-28.5 30l-328 487l-319 -489 q-10 -18 -25.5 -26.5t-38.5 -8.5h-225q-27 0 -36 19.5z" />
<glyph unicode="Y" horiz-adv-x="1323" d="M20 1413.5q9 20.5 33 20.5h236q16 0 29.5 -8.5t23.5 -24.5l324 -541h6l321 541q10 16 22.5 24.5t28.5 8.5h228q25 0 35 -19.5t-4 -44.5l-502 -815v-510q0 -18 -13.5 -31.5t-29.5 -13.5h-189q-18 0 -30.5 13.5t-12.5 31.5v510l-501 815q-14 23 -5 43.5z" />
<glyph unicode="Z" horiz-adv-x="1247" d="M33 45v123q0 16 7 31.5t21 31.5l746 959h-684q-18 0 -30.5 12t-12.5 31v156q0 18 12 31.5t31 13.5h999q16 0 29.5 -13.5t13.5 -31.5v-144q0 -16 -6 -32.5t-18 -28.5l-723 -940h751q18 0 30.5 -12.5t12.5 -30.5v-156q0 -18 -13.5 -31.5t-29.5 -13.5h-1091 q-18 0 -31.5 13.5t-13.5 31.5z" />
<glyph unicode="[" horiz-adv-x="708" d="M143 -172v1667q0 16 13.5 28.5t29.5 12.5h441q18 0 30.5 -12.5t12.5 -30.5v-113q0 -18 -12.5 -30.5t-30.5 -12.5h-232v-1353h232q18 0 30.5 -12.5t12.5 -28.5v-113q0 -18 -12.5 -30.5t-30.5 -12.5h-441q-16 0 -29.5 12.5t-13.5 28.5z" />
<glyph unicode="\" horiz-adv-x="964" d="M60.5 1416.5q9.5 17.5 35.5 17.5h107q20 0 30.5 -7.5t20.5 -25.5l651 -1342q10 -25 2 -42t-35 -17h-108q-20 0 -33.5 7t-23.5 28l-644 1341q-12 23 -2.5 40.5z" />
<glyph unicode="]" horiz-adv-x="708" d="M39 -57q0 16 12 28.5t31 12.5h231v1353h-231q-18 0 -30.5 12.5t-12.5 30.5v113q0 18 12 30.5t31 12.5h440q16 0 29.5 -12.5t13.5 -28.5v-1667q0 -16 -13 -28.5t-30 -12.5h-440q-18 0 -30.5 12.5t-12.5 30.5v113z" />
<glyph unicode="^" horiz-adv-x="1144" d="M73.5 451.5q-10.5 17.5 0.5 44.5l338 895q8 23 22.5 33t32.5 10h221q18 0 32.5 -11.5t20.5 -31.5l334 -895q10 -27 -1 -44.5t-40 -17.5h-192q-23 0 -38.5 10.5t-21.5 30.5l-204 627l-213 -627q-6 -20 -20.5 -30.5t-37.5 -10.5h-194q-29 0 -39.5 17.5z" />
<glyph unicode="_" horiz-adv-x="673" d="M10 -162q0 18 13.5 30.5t31.5 12.5h563q18 0 32 -12t14 -31v-157q0 -18 -14 -32t-32 -14h-563q-18 0 -31.5 13.5t-13.5 32.5v157z" />
<glyph unicode="`" horiz-adv-x="538" d="M77 1476.5q11 20.5 38 20.5h223q20 0 33.5 -10t17.5 -27l88 -307q6 -29 -7 -44t-42 -15h-119q-16 0 -27.5 7t-23.5 25l-180 310q-12 20 -1 40.5z" />
<glyph unicode="a" d="M49 496q0 225 143.5 372.5t352.5 147.5q100 0 181 -41t120 -109v78q0 18 12 30.5t29 12.5h180q16 0 28.5 -12t12.5 -31v-903q0 -16 -12.5 -28.5t-28.5 -12.5h-180q-16 0 -28.5 12.5t-12.5 28.5v80q-41 -68 -123 -109t-180 -41q-207 0 -350.5 149.5t-143.5 375.5zM315 494 q0 -117 77 -198t190 -81t188.5 81t75.5 198t-75.5 196.5t-188.5 79.5t-190 -80t-77 -196z" />
<glyph unicode="b" d="M98 41v1352q0 16 12.5 28.5t30.5 12.5h178q16 0 29.5 -12.5t13.5 -28.5v-523q39 66 122.5 106t183.5 40q205 0 347 -148.5t142 -371.5q0 -225 -143.5 -375t-349.5 -150q-96 0 -176 40t-128 110v-80q0 -16 -12 -28.5t-29 -12.5h-178q-18 0 -30.5 12.5t-12.5 28.5zM360 494 q0 -117 76 -198t189 -81t189.5 81t76.5 198t-77 196.5t-189 79.5q-113 0 -189 -80t-76 -196z" />
<glyph unicode="c" horiz-adv-x="1060" d="M49 494q0 221 151.5 371.5t374.5 150.5q143 0 261 -62.5t184 -171.5q12 -18 6 -38.5t-25 -34.5l-100 -78q-23 -18 -45 -14t-41 26q-57 70 -111.5 98.5t-123.5 28.5q-113 0 -189 -80t-76 -196q0 -117 76 -197t189 -80q70 0 124 28.5t111 98.5q18 23 41 27t45 -15l100 -77 q18 -14 24.5 -35t-5.5 -39q-66 -109 -184 -171.5t-261 -62.5q-223 0 -374.5 150.5t-151.5 372.5z" />
<glyph unicode="d" d="M49 496q0 223 142.5 371.5t347.5 148.5q100 0 183 -40t122 -106v523q0 16 13 28.5t30 12.5h178q18 0 30.5 -12.5t12.5 -28.5v-1352q0 -16 -12.5 -28.5t-30.5 -12.5h-178q-16 0 -28.5 12.5t-12.5 28.5v80q-47 -70 -127 -110t-176 -40q-207 0 -350.5 149.5t-143.5 375.5z M315 494q0 -117 77 -198t190 -81t188.5 81t75.5 198t-75.5 196.5t-188.5 79.5t-190 -80t-77 -196z" />
<glyph unicode="e" horiz-adv-x="1105" d="M49 489q0 223 148.5 375t371.5 152q217 0 360.5 -142.5t143.5 -351.5v-49q0 -23 -11 -34t-36 -11h-704q10 -102 82.5 -166.5t175.5 -64.5q37 0 69.5 7t63.5 23q25 12 46 29.5t44 44.5q12 14 25.5 16t27.5 -6l145 -90q16 -10 18.5 -24.5t-7.5 -28.5q-33 -43 -79 -80 t-102 -63q-59 -27 -122.5 -40.5t-133.5 -13.5q-227 0 -376.5 147.5t-149.5 370.5zM328 596h485q-16 94 -82.5 150.5t-159.5 56.5q-90 0 -156.5 -57.5t-86.5 -149.5z" />
<glyph unicode="f" horiz-adv-x="716" d="M25 809v135q0 18 12.5 30.5t30.5 12.5h133v156q0 160 97 253t253 93q74 0 149.5 -25.5t122.5 -68.5q14 -12 15.5 -32t-11.5 -38l-77 -106q-12 -20 -33 -21.5t-45 16.5q-25 16 -49.5 24.5t-47.5 8.5q-49 0 -79.5 -34.5t-30.5 -92.5v-133h194q18 0 30.5 -12t12.5 -31v-135 q0 -16 -13 -29.5t-30 -13.5h-194v-723q0 -16 -12.5 -29.5t-28.5 -13.5h-180q-16 0 -29.5 13.5t-13.5 29.5v723h-133q-18 0 -30.5 12.5t-12.5 30.5z" />
<glyph unicode="g" horiz-adv-x="1208" d="M51 502q0 225 140.5 369.5t347.5 144.5q100 0 184 -42t125 -110v80q0 16 12 28.5t29 12.5h178q18 0 30.5 -12t12.5 -29v-950q0 -211 -144.5 -338t-385.5 -127q-197 0 -331 82t-169 223q-4 14 2 26.5t18 14.5l191 51q16 4 28.5 -1t18.5 -17q18 -68 84.5 -110t163.5 -42 q125 0 193.5 65.5t68.5 180.5v131q-39 -63 -120 -102t-179 -39q-215 0 -356.5 142t-141.5 368zM317 500q0 -117 76 -195t189 -78t188.5 78t75.5 195t-75.5 194.5t-188.5 77.5t-189 -78t-76 -194z" />
<glyph unicode="h" horiz-adv-x="1202" d="M98 41v1352q0 16 12.5 28.5t28.5 12.5h180q16 0 29.5 -11.5t13.5 -27.5v-525q49 68 135.5 107t192.5 39q190 0 307 -119t117 -309v-549q0 -16 -12 -27.5t-31 -11.5h-178q-18 0 -30.5 11.5t-12.5 27.5v477q0 119 -63.5 187.5t-176.5 68.5q-111 0 -179.5 -70.5 t-68.5 -185.5v-477q0 -16 -13 -27.5t-30 -11.5h-180q-16 0 -28.5 12.5t-12.5 28.5z" />
<glyph unicode="i" horiz-adv-x="460" d="M66 1282q0 68 49 117t116 49q68 0 116 -49t48 -117t-48 -117t-116 -49t-116.5 49t-48.5 117zM98 43v901q0 18 12.5 30.5t30.5 12.5h178q18 0 30.5 -12t12.5 -31v-901q0 -18 -12.5 -30.5t-30.5 -12.5h-178q-18 0 -30.5 12.5t-12.5 30.5z" />
<glyph unicode="j" horiz-adv-x="460" d="M-275 -346.5q-1 18.5 11 37.5l74 98q14 18 34.5 21.5t42.5 -11.5q27 -14 52.5 -22t46.5 -8q49 0 79.5 33.5t30.5 95.5v1046q0 18 12.5 30.5t30.5 12.5h178q18 0 30.5 -12t12.5 -31v-1050q0 -170 -97 -267.5t-253 -97.5q-82 0 -154.5 24.5t-115.5 67.5q-14 14 -15 32.5z M61 1282q0 68 49.5 117t116.5 49q68 0 117 -49t49 -117t-49 -117t-117 -49t-117 49t-49 117z" />
<glyph unicode="k" horiz-adv-x="1024" d="M98 41v1352q0 16 12.5 28.5t30.5 12.5h178q18 0 30.5 -12.5t12.5 -28.5v-762h76l250 325q12 16 25.5 23.5t29.5 7.5h201q29 0 37 -19.5t-10 -43.5l-305 -371l356 -487q16 -25 5 -45.5t-40 -20.5h-207q-18 0 -33.5 8t-27.5 27l-275 391h-82v-385q0 -16 -12 -28.5 t-31 -12.5h-178q-18 0 -30.5 12.5t-12.5 28.5z" />
<glyph unicode="l" horiz-adv-x="548" d="M96 246v1145q0 18 12.5 30.5t30.5 12.5h178q18 0 30.5 -12.5t12.5 -30.5v-1094q0 -37 19.5 -57.5t54.5 -20.5h60q18 0 29.5 -10t11.5 -29v-129q0 -25 -14.5 -38t-39.5 -13h-131q-125 0 -189.5 62.5t-64.5 183.5z" />
<glyph unicode="m" horiz-adv-x="1845" d="M98 41v903q0 18 12.5 30.5t28.5 12.5h180q16 0 29.5 -12t13.5 -27v-78q45 66 129 106t179 40q106 0 189 -46t126 -128q63 84 153.5 129t196.5 45q195 0 308.5 -117t113.5 -301v-559q0 -16 -12 -27.5t-31 -11.5h-178q-18 0 -30.5 11.5t-12.5 27.5v496q0 111 -56.5 174 t-154.5 63q-100 0 -160.5 -65.5t-60.5 -171.5v-496q0 -16 -13.5 -27.5t-29.5 -11.5h-178q-16 0 -29.5 11.5t-13.5 27.5v496q0 111 -56.5 174t-154.5 63q-102 0 -163 -65.5t-61 -171.5v-496q0 -16 -13 -27.5t-30 -11.5h-180q-16 0 -28.5 12.5t-12.5 28.5z" />
<glyph unicode="n" horiz-adv-x="1202" d="M98 41v903q0 18 12.5 30.5t28.5 12.5h180q16 0 29.5 -12t13.5 -27v-78q49 68 135.5 107t192.5 39q190 0 307 -119t117 -309v-549q0 -16 -12 -27.5t-31 -11.5h-178q-18 0 -30.5 11.5t-12.5 27.5v477q0 119 -63.5 187.5t-176.5 68.5q-111 0 -179.5 -70.5t-68.5 -185.5v-477 q0 -16 -13 -27.5t-30 -11.5h-180q-16 0 -28.5 12.5t-12.5 28.5z" />
<glyph unicode="o" horiz-adv-x="1155" d="M47 492q0 219 153.5 371.5t377.5 152.5q223 0 376.5 -152.5t153.5 -371.5t-153.5 -370t-376.5 -151t-377 150.5t-154 370.5zM313 494q0 -117 76 -197t189 -80t188.5 80t75.5 197t-75.5 196.5t-188.5 79.5t-189 -80t-76 -196z" />
<glyph unicode="p" d="M98 -399v1343q0 18 12.5 30.5t28.5 12.5h178q16 0 28.5 -12.5t12.5 -30.5v-78q47 70 129 110t183 40q207 0 347 -147.5t140 -372.5q0 -227 -141.5 -376t-349.5 -149q-94 0 -177 38t-127 102v-510q0 -16 -12 -28.5t-28 -12.5h-183q-16 0 -28.5 12t-12.5 29zM360 494 q0 -117 77 -198t190 -81t188.5 80t75.5 199q0 117 -75.5 196.5t-188.5 79.5t-190 -80t-77 -196z" />
<glyph unicode="q" d="M49 496q0 223 143.5 371.5t350.5 148.5q100 0 182 -40t121 -106v74q0 18 12 30.5t29 12.5h180q16 0 28.5 -12t12.5 -31v-1343q0 -16 -12.5 -28.5t-28.5 -12.5h-182q-16 0 -28.5 12t-12.5 29v520q-45 -70 -125 -110t-176 -40q-207 0 -350.5 149.5t-143.5 375.5zM315 494 q0 -117 77 -198t190 -81t188.5 80t75.5 199q0 117 -75.5 196.5t-188.5 79.5t-190 -80t-77 -196z" />
<glyph unicode="r" horiz-adv-x="690" d="M98 41v903q0 18 12.5 30.5t28.5 12.5h170q16 0 28.5 -12t12.5 -27v-94q41 70 103.5 107.5t138.5 37.5h29q23 0 35 -13t12 -38v-176q0 -25 -14.5 -38t-35.5 -13h-49q-104 0 -155.5 -58.5t-51.5 -179.5v-444q0 -16 -13 -27.5t-30 -11.5h-180q-16 0 -28.5 12.5t-12.5 28.5z " />
<glyph unicode="s" horiz-adv-x="956" d="M42 162q-1 6 -1 11q0 28 29 52l75 62q23 18 44.5 17t48.5 -23q59 -51 121.5 -77t129.5 -26q72 0 115 27.5t43 70.5q0 37 -32.5 58.5t-125.5 40.5l-157 33q-127 27 -196.5 102t-69.5 190q0 137 116.5 226.5t300.5 89.5q115 0 216.5 -34t166.5 -91q20 -16 20.5 -38 t-18.5 -44l-65 -78q-18 -20 -41 -22t-51 16q-57 41 -118 62.5t-116 21.5q-63 0 -105 -25.5t-42 -62.5t29.5 -59.5t95.5 -34.5l161 -31q150 -29 226 -102.5t76 -192.5q0 -143 -124 -236.5t-317 -93.5q-109 0 -206 31t-171 86q-51 39 -58 74z" />
<glyph unicode="t" horiz-adv-x="817" d="M12 809v135q0 18 12.5 30.5t28.5 12.5h135v275q0 18 12.5 30.5t30.5 12.5h181q16 0 28.5 -12.5t12.5 -30.5v-275h286q18 0 30.5 -12t12.5 -31v-135q0 -16 -13 -29.5t-30 -13.5h-286v-416q0 -61 30.5 -94t81.5 -33q23 0 47 8.5t47 22.5q25 14 46.5 12t33.5 -20l62 -101 q12 -18 10 -35.5t-16 -31.5q-47 -47 -120 -72.5t-159 -25.5q-147 0 -237.5 82.5t-90.5 228.5v475h-135q-16 0 -28.5 13.5t-12.5 29.5z" />
<glyph unicode="u" horiz-adv-x="1163" d="M88 391v557q0 14 13.5 26.5t29.5 12.5h178q16 0 29.5 -12.5t13.5 -26.5v-512q0 -115 57.5 -177t163.5 -62q104 0 166 64.5t62 170.5v516q0 14 12 26.5t29 12.5h180q18 0 30.5 -12t12.5 -31v-903q0 -16 -12.5 -28.5t-30.5 -12.5h-180q-16 0 -28.5 11.5t-12.5 27.5v78 q-55 -74 -130 -110t-177 -36q-186 0 -296 115t-110 305z" />
<glyph unicode="v" horiz-adv-x="1052" d="M27 924q-10 25 2 44t37 19h198q18 0 30.5 -9t20.5 -32l224 -678l204 678q6 20 18.5 30.5t33.5 10.5h194q25 0 37 -19.5t4 -43.5l-313 -881q-4 -18 -19.5 -30.5t-33.5 -12.5h-269q-20 0 -34.5 11.5t-20.5 31.5z" />
<glyph unicode="w" horiz-adv-x="1603" d="M25 928q-8 27 2 43t36 16h193q20 0 32.5 -10t18.5 -31l174 -631l170 631q6 20 18.5 30.5t32.5 10.5h213q20 0 34 -10t20 -31l170 -631l178 631q6 20 19.5 30.5t31.5 10.5h172q27 0 37 -16.5t2 -42.5l-285 -885q-6 -20 -20 -31.5t-35 -11.5h-223q-20 0 -35.5 11.5 t-19.5 31.5l-158 592l-158 -592q-4 -18 -19.5 -30.5t-33.5 -12.5h-230q-18 0 -32.5 11.5t-20.5 31.5z" />
<glyph unicode="x" horiz-adv-x="1048" d="M20 17.5q-8 17.5 5 35.5l327 457l-325 424q-14 16 -6 34.5t30 18.5h230q18 0 32.5 -8t28.5 -27l205 -264l182 264q10 18 24.5 26.5t37.5 8.5h188q23 0 31 -18.5t-6 -34.5l-310 -436l344 -445q12 -18 4 -35.5t-30 -17.5h-232q-18 0 -32.5 8t-28.5 27l-217 282l-193 -282 q-12 -18 -25.5 -26.5t-35.5 -8.5h-197q-23 0 -31 17.5z" />
<glyph unicode="y" horiz-adv-x="1060" d="M1 -334q-1 21 13 39l64 88q16 23 38.5 25t45.5 -15q31 -25 61.5 -36t63.5 -11q45 0 79.5 28t53.5 77l49 139h-92q-18 0 -31.5 10t-19.5 31l-299 883q-8 31 3 47t40 16h211q16 0 27 -11t18 -32l215 -704l202 704q6 20 19.5 31.5t34.5 11.5h202q27 0 37.5 -17.5t-0.5 -45.5 l-356 -1104q-47 -141 -142.5 -216t-232.5 -75q-86 0 -161.5 26.5t-127.5 75.5q-14 14 -15 35z" />
<glyph unicode="z" horiz-adv-x="968" d="M47 43v121q0 16 5 28.5t16 22.5l481 545h-436q-16 0 -29.5 13t-13.5 30v141q0 16 13 29.5t30 13.5h743q16 0 29.5 -13t13.5 -30v-121q0 -16 -5 -29.5t-15 -23.5l-478 -543h480q16 0 28.5 -12t12.5 -31v-143q0 -16 -12.5 -28.5t-28.5 -12.5h-791q-16 0 -29.5 13.5 t-13.5 29.5z" />
<glyph unicode="{" horiz-adv-x="718" d="M45 631v96q0 25 13.5 38t33.5 13h31q39 0 54.5 17.5t15.5 56.5v428q0 127 63 191.5t186 64.5h193q16 0 29.5 -13.5t13.5 -29.5v-113q0 -16 -13.5 -29.5t-29.5 -13.5h-96q-41 0 -58.5 -19.5t-17.5 -62.5v-368q0 -84 -43 -139.5t-109 -69.5q57 -6 104.5 -62.5t47.5 -144.5 v-403q0 -43 18.5 -62.5t57.5 -19.5h96q18 0 30.5 -12.5t12.5 -30.5v-111q0 -18 -12.5 -30.5t-30.5 -12.5h-193q-123 0 -186 64.5t-63 191.5v461q0 39 -15.5 56.5t-54.5 17.5h-31q-20 0 -33.5 13t-13.5 38z" />
<glyph unicode="|" horiz-adv-x="444" d="M141 -213v1862q0 16 13.5 28.5t29.5 12.5h74q18 0 30.5 -12.5t12.5 -28.5v-1862q0 -18 -12.5 -30.5t-30.5 -12.5h-74q-16 0 -29.5 13.5t-13.5 29.5z" />
<glyph unicode="}" horiz-adv-x="720" d="M43 -57q0 18 12.5 30.5t30.5 12.5h96q39 0 57.5 19.5t18.5 62.5v403q0 88 47 144.5t105 62.5q-66 14 -109 69.5t-43 139.5v368q0 43 -17.5 62.5t-58.5 19.5h-96q-16 0 -29.5 13.5t-13.5 29.5v113q0 16 13.5 29.5t29.5 13.5h193q123 0 186 -64.5t63 -191.5v-428 q0 -39 15.5 -56.5t54.5 -17.5h31q20 0 33.5 -13t13.5 -38v-96q0 -25 -13.5 -38t-33.5 -13h-31q-39 0 -54.5 -17.5t-15.5 -56.5v-461q0 -127 -63.5 -191.5t-185.5 -64.5h-193q-18 0 -30.5 12.5t-12.5 30.5v111z" />
<glyph unicode="~" horiz-adv-x="1226" d="M92 725q8 47 83 100.5t153 53.5q29 0 89 -7.5t212 -29.5q127 -18 174 -24.5t67 -6.5q25 0 45.5 7t49.5 30q18 14 27 19t20 7q12 6 24.5 1t26.5 -19l55 -86q12 -14 18.5 -29.5t4.5 -29.5q-8 -47 -82 -100.5t-150 -53.5q-31 0 -97.5 7t-225.5 32q-117 18 -159 23.5t-60 5.5 q-25 0 -45.5 -7.5t-47.5 -29.5q-16 -14 -25 -20.5t-20 -8.5q-12 -4 -23 0t-28 21l-63 86q-12 14 -18.5 29.5t-4.5 29.5z" />
<glyph unicode="&#xa1;" horiz-adv-x="538" d="M88 836q0 74 53.5 127t126.5 53q76 0 129.5 -53.5t53.5 -126.5q0 -76 -53.5 -129.5t-129.5 -53.5q-74 0 -127 53.5t-53 129.5zM129 -403l6 862q0 18 12.5 30.5t30.5 12.5h182q18 0 32 -13.5t14 -29.5l4 -862q0 -16 -13.5 -29.5t-31.5 -13.5h-191q-18 0 -31.5 13t-13.5 30 z" />
<glyph unicode="&#xa2;" horiz-adv-x="1118" d="M74 924q0 190 114.5 331.5t298.5 178.5v170q0 16 12.5 28.5t30.5 12.5h121q18 0 30.5 -12.5t12.5 -28.5v-164q113 -18 205 -77.5t148 -150.5q10 -18 2.5 -40.5t-25.5 -32.5l-111 -82q-18 -14 -38.5 -10t-38.5 26q-41 63 -99.5 95t-130.5 32q-115 0 -189.5 -79t-74.5 -197 q0 -119 75 -198t189 -79q72 0 130.5 32t99.5 95q18 23 38.5 27t38.5 -10l111 -80q18 -12 25.5 -35t-2.5 -41q-55 -90 -147.5 -149.5t-205.5 -77.5v-156q0 -18 -12 -30.5t-31 -12.5h-121q-18 0 -30.5 12t-12.5 31v162q-184 37 -298.5 178t-114.5 332z" />
<glyph unicode="&#xa3;" horiz-adv-x="1280" d="M82 45v170q0 18 13.5 30.5t31.5 12.5h127v297h-127q-18 0 -31.5 13.5t-13.5 29.5v137q0 18 13.5 31.5t31.5 13.5h127v205q0 211 137 344t352 133q70 0 131.5 -12t114.5 -37q76 -35 132.5 -85t86.5 -111q10 -18 5 -34t-27 -32l-115 -80q-23 -16 -45 -12t-39 22 q-39 49 -58.5 67.5t-37.5 31.5q-29 18 -62.5 27.5t-70.5 9.5q-106 0 -168 -71t-62 -188v-178h326q18 0 31.5 -13t13.5 -32v-137q0 -16 -13.5 -29.5t-31.5 -13.5h-326v-297h615q18 0 31.5 -12.5t13.5 -30.5v-170q0 -18 -13.5 -31.5t-31.5 -13.5h-1016q-18 0 -31.5 13.5 t-13.5 31.5z" />
<glyph unicode="&#xa4;" horiz-adv-x="1554" d="M94.5 143.5q-0.5 16.5 14.5 30.5l141 141q-68 88 -103.5 189.5t-35.5 212.5t35.5 212t103.5 189l-141 142q-14 14 -14.5 30.5t14.5 30.5l71 70q14 14 31.5 14t32.5 -14l145 -146q84 59 183.5 90t205.5 31t205.5 -30.5t181.5 -90.5l148 146q12 12 30.5 12t30.5 -12l74 -70 q12 -12 12 -29.5t-14 -31.5l-143 -144q70 -86 105.5 -188.5t35.5 -210.5q-2 -113 -38 -215.5t-103 -184.5l143 -143q14 -14 14 -31.5t-12 -29.5l-74 -70q-12 -12 -30.5 -12t-30.5 12l-148 145q-82 -59 -181 -89.5t-206 -30.5q-106 0 -205.5 30.5t-183.5 89.5l-145 -145 q-14 -14 -31.5 -14t-32.5 14l-71 70q-14 14 -14.5 30.5zM344 717q0 -63 18.5 -124t53.5 -114l231 238l-231 237q-35 -53 -53.5 -113.5t-18.5 -123.5zM545 344q51 -35 110.5 -52.5t122.5 -17.5q61 0 120.5 17.5t111.5 52.5l-232 236zM545 1090l233 -236l232 236 q-51 35 -111 52t-121 17q-63 0 -122.5 -17.5t-110.5 -51.5zM907 717l234 -238q35 51 52 111.5t17 126.5t-17 126t-52 111z" />
<glyph unicode="&#xa5;" horiz-adv-x="1409" d="M63 1413.5q9 20.5 33 20.5h236q16 0 29.5 -8.5t23.5 -24.5l324 -541h6l321 541q10 16 22.5 24.5t28.5 8.5h228q25 0 35 -19.5t-4 -44.5l-308 -498h138q16 0 29.5 -13t13.5 -32v-102q0 -18 -13.5 -31.5t-29.5 -13.5h-254l-78 -125v-14h332q16 0 29.5 -13.5t13.5 -31.5 v-103q0 -18 -13.5 -31.5t-29.5 -13.5h-332v-303q0 -18 -13.5 -31.5t-29.5 -13.5h-189q-18 0 -30.5 13.5t-12.5 31.5v303h-336q-18 0 -30.5 13.5t-12.5 31.5v103q0 18 12.5 31.5t30.5 13.5h336v14l-77 125h-259q-18 0 -30.5 13.5t-12.5 31.5v102q0 18 12.5 31.5t30.5 13.5 h142l-307 498q-14 23 -5 43.5z" />
<glyph unicode="&#xa6;" horiz-adv-x="440" d="M139 -213v731q0 18 12.5 30.5t30.5 12.5h76q16 0 28.5 -12.5t12.5 -30.5v-731q0 -16 -12.5 -29.5t-28.5 -13.5h-76q-16 0 -29.5 13.5t-13.5 29.5zM139 915v734q0 16 13.5 28.5t29.5 12.5h76q16 0 28.5 -12.5t12.5 -28.5v-734q0 -16 -12.5 -28.5t-28.5 -12.5h-76 q-16 0 -29.5 12.5t-13.5 28.5z" />
<glyph unicode="&#xa7;" horiz-adv-x="1558" d="M55 684q0 123 75 228.5t208 162.5q-6 27 -8 50.5t-2 48.5q2 182 143 301.5t358 119.5q139 0 267.5 -55t199.5 -143q25 -31 25 -56.5t-23 -44.5l-106 -90q-20 -18 -46 -15t-44 23q-61 66 -130 100t-143 34q-90 0 -149 -47.5t-59 -116.5q0 -70 48 -121t160 -102l365 -164 q152 -68 230.5 -172.5t78.5 -239.5q0 -125 -74.5 -230.5t-207.5 -162.5q6 -27 8 -50t2 -48q-2 -180 -143.5 -301t-356.5 -121q-139 0 -268 56t-201 144q-23 29 -22.5 55.5t20.5 43.5l107 92q20 16 45.5 14t44.5 -22q59 -66 128.5 -100t145.5 -34q90 0 148.5 46.5t58.5 115.5 q0 70 -47 121t-160 102l-364 164q-154 70 -233 174.5t-79 239.5zM342 711q0 -74 58.5 -131t220.5 -129l297 -136q57 -27 104 -56.5t84 -65.5q53 27 83 69.5t30 93.5q0 74 -57.5 130.5t-221.5 129.5l-297 136q-59 27 -106.5 57.5t-83.5 64.5q-53 -25 -82 -67.5t-29 -95.5z " />
<glyph unicode="&#xa8;" horiz-adv-x="864" d="M51 1253q0 70 49.5 119t118.5 49q70 0 119 -49t49 -119t-49 -119t-119 -49t-119 49.5t-49 118.5zM475 1253q0 68 50 118t118 50q70 0 119 -49t49 -119t-49 -119t-119 -49q-68 0 -118 50.5t-50 117.5z" />
<glyph unicode="&#xa9;" horiz-adv-x="1847" d="M68 717q0 172 65.5 326.5t185.5 271.5q119 115 276 176t329 61t328.5 -61t275.5 -178q121 -117 185.5 -270.5t64.5 -325.5t-64.5 -325.5t-185.5 -270.5q-119 -115 -275.5 -176.5t-328.5 -61.5q-174 0 -330 61.5t-275 176.5q-121 117 -186 270.5t-65 325.5zM229 717 q0 -293 200 -492.5t495 -199.5q293 0 492.5 199.5t199.5 492.5t-199.5 493.5t-492.5 200.5q-295 0 -495 -199.5t-200 -494.5zM416 719q0 213 145.5 355.5t362.5 142.5q139 0 252.5 -62.5t175.5 -171.5q10 -18 3 -38.5t-28 -33.5l-113 -67q-23 -14 -45 -10t-39 22 q-55 66 -100 90.5t-102 24.5q-106 0 -175 -72t-69 -180q0 -109 68.5 -180.5t175.5 -71.5q57 0 102 24.5t100 90.5q16 18 39 22t45 -10l113 -68q20 -12 27.5 -32.5t-2.5 -38.5q-61 -109 -175 -171.5t-253 -62.5q-217 0 -362.5 142.5t-145.5 355.5z" />
<glyph unicode="&#xaa;" horiz-adv-x="950" d="M82 1098q0 160 101.5 264t248.5 104q68 0 123 -25.5t86 -68.5v41q0 14 9 23.5t24 9.5h123q14 0 23 -9.5t9 -23.5v-633q0 -14 -9 -23t-23 -9h-123q-14 0 -23.5 9t-9.5 23v45q-31 -45 -86 -70.5t-123 -25.5q-147 0 -248.5 104.5t-101.5 264.5zM133 506v115q0 16 10.5 25 t24.5 9h627q14 0 24 -10t10 -24v-115q0 -14 -10 -24.5t-24 -10.5h-627q-14 0 -24.5 10.5t-10.5 24.5zM276 1098q0 -80 52.5 -135.5t130.5 -55.5q76 0 128 55.5t52 135.5t-52 135t-128 55q-78 0 -130.5 -55t-52.5 -135z" />
<glyph unicode="&#xab;" horiz-adv-x="1079" d="M59.5 501.5q-0.5 18.5 8.5 33.5l229 407q10 18 24.5 26.5t36.5 8.5h177q18 0 26 -17.5t0 -35.5l-211 -424l211 -420q8 -18 0 -35.5t-26 -17.5h-177q-23 0 -37 8t-24 26l-229 408q-8 14 -8.5 32.5zM502 501.5q0 18.5 8 33.5l229 407q10 18 24.5 26.5t37.5 8.5h176 q18 0 26.5 -17.5t0.5 -35.5l-211 -424l211 -420q8 -18 -0.5 -35.5t-26.5 -17.5h-176q-23 0 -37 8t-25 26l-229 408q-8 14 -8 32.5z" />
<glyph unicode="&#xac;" horiz-adv-x="1236" d="M61 854v172q0 18 12.5 31.5t30.5 13.5h963q18 0 30.5 -13.5t12.5 -31.5v-620q0 -18 -12.5 -31t-30.5 -13h-186q-18 0 -30.5 12.5t-12.5 31.5v405h-734q-18 0 -30.5 12.5t-12.5 30.5z" />
<glyph unicode="&#xad;" horiz-adv-x="768" d="M102 500v184q0 18 12.5 31.5t30.5 13.5h476q18 0 31.5 -13.5t13.5 -31.5v-184q0 -18 -13.5 -31.5t-31.5 -13.5h-476q-18 0 -30.5 13t-12.5 32z" />
<glyph unicode="&#xae;" horiz-adv-x="1824" d="M70 717q0 170 63.5 323.5t181.5 270.5q117 117 271.5 179t326.5 62t326 -62.5t272 -178.5q117 -117 180.5 -270.5t63.5 -323.5t-63.5 -323.5t-180.5 -270.5q-119 -115 -272.5 -177.5t-325.5 -62.5t-326.5 62.5t-271.5 177.5q-119 117 -182 270.5t-63 323.5zM229 717 q0 -293 196.5 -492.5t487.5 -199.5q289 0 485.5 199.5t196.5 492.5t-196.5 493.5t-485.5 200.5t-486.5 -199.5t-197.5 -494.5zM571 250v930q0 12 10.5 22t22.5 10h381q170 0 274.5 -95t104.5 -240q0 -104 -56.5 -185.5t-152.5 -120.5l186 -301q12 -20 4 -35.5t-30 -15.5 h-154q-23 0 -37 8.5t-28 30.5l-170 283h-135v-291q0 -12 -10.5 -21.5t-22.5 -9.5h-154q-12 0 -22.5 9.5t-10.5 21.5zM791 725h188q70 2 114 44t44 108t-44 107.5t-114 41.5h-188v-301z" />
<glyph unicode="&#xaf;" horiz-adv-x="1036" d="M170 1176v133q0 18 12.5 30.5t30.5 12.5h608q18 0 31.5 -12.5t13.5 -30.5v-133q0 -18 -13.5 -32t-31.5 -14h-608q-18 0 -30.5 13.5t-12.5 32.5z" />
<glyph unicode="&#xb0;" horiz-adv-x="782" d="M57 1137q0 135 98.5 230t235.5 95q139 0 236.5 -95t97.5 -230t-97.5 -230.5t-236.5 -95.5q-137 0 -235.5 95t-98.5 231zM227 1137q0 -72 47.5 -121t116.5 -49q70 0 117 49t47 121t-47 121t-117 49t-117 -49.5t-47 -120.5z" />
<glyph unicode="&#xb1;" horiz-adv-x="1220" d="M86 45v170q0 18 12.5 30.5t30.5 12.5h963q18 0 30.5 -12.5t12.5 -30.5v-170q0 -18 -12.5 -31.5t-30.5 -13.5h-963q-18 0 -30.5 13.5t-12.5 31.5zM86 741v172q0 18 12.5 31.5t30.5 13.5h342v357q0 18 13.5 30.5t31.5 12.5h186q18 0 30.5 -12.5t12.5 -30.5v-357h347 q18 0 30.5 -13t12.5 -32v-172q0 -18 -12.5 -30.5t-30.5 -12.5h-347v-358q0 -18 -12 -31.5t-31 -13.5h-186q-18 0 -31.5 13.5t-13.5 31.5v358h-342q-18 0 -30.5 12.5t-12.5 30.5z" />
<glyph unicode="&#xb2;" horiz-adv-x="622" d="M33 1554q23 88 97.5 143.5t176.5 55.5q111 0 182.5 -63.5t71.5 -161.5q0 -68 -44 -135.5t-142 -145.5l-111 -90h289q10 0 17.5 -7t7.5 -15v-88q0 -10 -7.5 -17.5t-17.5 -7.5h-479q-10 0 -17.5 7t-7.5 16v75q0 10 3 18.5t14 18.5l204 174q80 68 108 108t28 79 q0 43 -31 70.5t-76 27.5q-27 0 -48.5 -8t-37.5 -25q-10 -8 -18.5 -20.5t-20.5 -40.5q-8 -18 -19.5 -24.5t-27.5 -2.5l-76 25q-12 4 -17 13t-1 21z" />
<glyph unicode="&#xb3;" horiz-adv-x="634" d="M33 1243v15q0 10 7 16t15 6h101q10 0 16 -6t6 -16v-9q0 -51 37 -83.5t96 -32.5q55 0 90 30.5t35 75.5t-33.5 72.5t-91.5 27.5h-22q-10 0 -16.5 7.5t-6.5 17.5v68q0 10 6.5 17t16.5 7h22q43 0 71 24.5t28 61.5t-27 61.5t-70 24.5q-37 0 -65.5 -18.5t-46.5 -55.5 q-6 -12 -15.5 -14t-21.5 2l-70 29q-12 6 -16 16t2 23q23 61 90.5 102t155.5 41q96 0 160.5 -52t64.5 -134q0 -51 -26.5 -92t-71.5 -60q63 -16 100 -64t37 -114q0 -102 -79 -165.5t-200 -63.5q-125 0 -201.5 64.5t-76.5 170.5z" />
<glyph unicode="&#xb4;" horiz-adv-x="538" d="M70 1153l86 307q4 16 18.5 26.5t34.5 10.5h223q27 0 38 -20.5t-1 -40.5l-180 -310q-10 -18 -22.5 -25t-28.5 -7h-119q-29 0 -42.5 15t-6.5 44z" />
<glyph unicode="&#xb5;" horiz-adv-x="1255" d="M139 -279v1227q0 14 13.5 26.5t29.5 12.5h178q16 0 29.5 -12t13.5 -27v-512q0 -115 57.5 -177t164.5 -62q104 0 164.5 63.5t60.5 171.5v516q0 14 13.5 26.5t29.5 12.5h180q18 0 30.5 -12t12.5 -31v-903q0 -16 -12 -28.5t-31 -12.5h-180q-16 0 -29.5 11.5t-13.5 27.5v78 q-43 -68 -117 -107t-162 -39q-66 0 -121 19.5t-88 54.5v-324q0 -18 -12 -30.5t-28 -12.5h-140q-18 0 -30.5 12.5t-12.5 30.5z" />
<glyph unicode="&#xb6;" horiz-adv-x="1267" d="M59 983q0 190 124 320.5t313 130.5h557q18 0 31.5 -13.5t13.5 -29.5v-1346q0 -18 -13.5 -31.5t-31.5 -13.5h-117q-18 0 -31.5 13.5t-13.5 31.5v1217h-197v-1219q0 -18 -13 -30.5t-32 -12.5h-119q-18 0 -30.5 12.5t-12.5 30.5v508h-8q-186 0 -303 123t-117 309z" />
<glyph unicode="&#xb7;" horiz-adv-x="530" d="M76 725q0 78 56 133t134 55t133.5 -55t55.5 -133t-55.5 -134t-133.5 -56t-134 56t-56 134z" />
<glyph unicode="&#xb8;" horiz-adv-x="522" d="M96 -274l109 315l270 -35l-149 -305q-6 -14 -18.5 -21.5t-35.5 -7.5h-139q-25 0 -35 14.5t-2 39.5z" />
<glyph unicode="&#xb9;" horiz-adv-x="382" d="M25 1552v76q0 12 6 18.5t16 6.5h29q35 0 58.5 14t37.5 47q6 14 15.5 20.5t25.5 6.5h57q10 0 17.5 -6t7.5 -17v-671q0 -10 -7 -17.5t-20 -7.5h-98q-8 0 -16.5 8t-8.5 17v483h-98q-8 0 -15 7t-7 15z" />
<glyph unicode="&#xba;" horiz-adv-x="921" d="M86 1096q0 154 109.5 262t265.5 108q158 0 266.5 -107t108.5 -263q0 -154 -109 -260.5t-266 -106.5q-156 0 -265.5 106.5t-109.5 260.5zM117 506v115q0 14 9 24t24 10h620q16 0 25.5 -9t9.5 -25v-115q0 -14 -9.5 -24.5t-25.5 -10.5h-620q-14 0 -23.5 10.5t-9.5 24.5z M279 1096q0 -80 52 -134.5t130 -54.5t130 54.5t52 134.5t-52 135t-130 55t-130 -55t-52 -135z" />
<glyph unicode="&#xbb;" horiz-adv-x="1079" d="M75 959.5q9 17.5 27 17.5h177q23 0 37 -8t24 -27l229 -407q8 -14 8 -33t-8 -33l-229 -408q-10 -18 -24.5 -26t-36.5 -8h-177q-18 0 -26 17t0 36l209 420l-209 424q-10 18 -1 35.5zM517 959.5q9 17.5 28 17.5h176q23 0 37 -8t24 -27l230 -407q8 -14 8 -33t-8 -33 l-230 -408q-10 -18 -24.5 -26t-36.5 -8h-176q-18 0 -26.5 17t-0.5 36l209 420l-209 424q-10 18 -1 35.5z" />
<glyph unicode="&#xbc;" horiz-adv-x="1421" d="M50 825v76q0 12 6 18.5t16 6.5h29q35 0 58.5 14t37.5 47q6 14 15.5 20.5t25.5 6.5h57q10 0 17.5 -6t7.5 -17v-671q0 -10 -7 -17.5t-20 -7.5h-98q-8 0 -16.5 8t-8.5 17v483h-98q-8 0 -15 7t-7 15zM316 15.5q-9 15.5 2 33.5l452 932q10 18 23.5 25.5t34.5 7.5h36 q23 0 32 -15.5t-1 -33.5l-452 -932q-8 -16 -21.5 -24.5t-36.5 -8.5h-37q-23 0 -32 15.5zM752 205v74q0 23 3 34t11 21l272 364q6 10 15.5 15.5t19.5 5.5h150q10 0 18 -8.5t8 -16.5v-395h96q10 0 16.5 -7t6.5 -18v-69q0 -10 -7 -17.5t-16 -7.5h-96v-155q0 -8 -8 -16.5 t-18 -8.5h-97q-10 0 -18 7t-8 18v155h-324q-8 0 -16 8.5t-8 16.5zM897 299h203v270z" />
<glyph unicode="&#xbd;" horiz-adv-x="1445" d="M50 825v76q0 12 6 18.5t16 6.5h29q35 0 58.5 14t37.5 47q6 14 15.5 20.5t25.5 6.5h57q10 0 17.5 -6t7.5 -17v-671q0 -10 -7 -17.5t-20 -7.5h-98q-8 0 -16.5 8t-8.5 17v483h-98q-8 0 -15 7t-7 15zM316 15.5q-9 15.5 2 33.5l452 932q10 18 23.5 25.5t34.5 7.5h36 q23 0 32 -15.5t-1 -33.5l-452 -932q-8 -16 -21.5 -24.5t-36.5 -8.5h-37q-23 0 -32 15.5zM838 532q23 88 97.5 143.5t176.5 55.5q111 0 182.5 -63.5t71.5 -161.5q0 -68 -44 -135.5t-142 -145.5l-111 -90h289q10 0 17.5 -7t7.5 -15v-88q0 -10 -7.5 -17.5t-17.5 -7.5h-479 q-10 0 -17.5 7t-7.5 16v75q0 10 3 18.5t14 18.5l204 174q80 68 108 108t28 79q0 43 -31 70.5t-76 27.5q-27 0 -48.5 -8t-37.5 -25q-10 -8 -18.5 -20.5t-20.5 -40.5q-8 -18 -19.5 -24.5t-27.5 -2.5l-76 25q-12 4 -17 13t-1 21z" />
<glyph unicode="&#xbe;" horiz-adv-x="1648" d="M58 518v15q0 10 7 16t15 6h101q10 0 16 -6t6 -16v-9q0 -51 37 -83.5t96 -32.5q55 0 90 30.5t35 75.5t-33.5 72.5t-91.5 27.5h-22q-10 0 -16.5 7.5t-6.5 17.5v68q0 10 6.5 17t16.5 7h22q43 0 71 24.5t28 61.5t-27 61.5t-70 24.5q-37 0 -65.5 -18.5t-46.5 -55.5 q-6 -12 -15.5 -14t-21.5 2l-70 29q-12 6 -16 16t2 23q23 61 90.5 102t155.5 41q96 0 160.5 -52t64.5 -134q0 -51 -26.5 -92t-71.5 -60q63 -16 100 -64t37 -114q0 -102 -79 -165.5t-200 -63.5q-125 0 -201.5 64.5t-76.5 170.5zM545 15.5q-9 15.5 2 33.5l452 932 q10 18 23.5 25.5t34.5 7.5h36q23 0 32 -15.5t-1 -33.5l-452 -932q-8 -16 -21.5 -24.5t-36.5 -8.5h-37q-23 0 -32 15.5zM981 205v74q0 23 3 34t11 21l272 364q6 10 15.5 15.5t19.5 5.5h150q10 0 18 -8.5t8 -16.5v-395h96q10 0 16.5 -7t6.5 -18v-69q0 -10 -7 -17.5t-16 -7.5 h-96v-155q0 -8 -8 -16.5t-18 -8.5h-97q-10 0 -18 7t-8 18v155h-324q-8 0 -16 8.5t-8 16.5zM1126 299h203v270z" />
<glyph unicode="&#xbf;" horiz-adv-x="991" d="M66 -96q0 82 34.5 160.5t139.5 203.5q72 84 92 125t20 76v14q0 18 12.5 29.5t28.5 11.5h180q16 0 28.5 -12t12.5 -31v-45q0 -55 -27.5 -113.5t-113.5 -162.5q-78 -92 -101.5 -140.5t-23.5 -93.5q0 -68 49 -111.5t127 -43.5q59 0 111.5 31.5t99.5 95.5q16 23 40 25.5 t48 -15.5l95 -66q29 -20 30.5 -45.5t-18.5 -58.5q-63 -98 -175 -155.5t-251 -57.5q-197 0 -317.5 108.5t-120.5 270.5zM301 836q0 74 53.5 127t126.5 53q76 0 129.5 -53.5t53.5 -126.5q0 -76 -53.5 -129.5t-129.5 -53.5q-74 0 -127 53.5t-53 129.5z" />
<glyph unicode="&#xc0;" horiz-adv-x="1378" d="M20 18.5q-10 18.5 0 44.5l476 1328q6 20 22.5 31.5t34.5 11.5h274q18 0 35 -11.5t23 -31.5l477 -1325q10 -29 -1 -47.5t-38 -18.5h-215q-16 0 -27.5 9t-17.5 30l-107 309h-548l-105 -309q-6 -18 -18.5 -28.5t-26.5 -10.5h-203q-25 0 -35 18.5zM390 1922.5 q11 20.5 38 20.5h223q20 0 33.5 -10t17.5 -27l88 -307q6 -29 -7 -44t-42 -15h-119q-16 0 -27.5 7t-23.5 25l-180 310q-12 20 -1 40.5zM485 580h392l-193 559h-10z" />
<glyph unicode="&#xc1;" horiz-adv-x="1378" d="M20 18.5q-10 18.5 0 44.5l476 1328q6 20 22.5 31.5t34.5 11.5h274q18 0 35 -11.5t23 -31.5l477 -1325q10 -29 -1 -47.5t-38 -18.5h-215q-16 0 -27.5 9t-17.5 30l-107 309h-548l-105 -309q-6 -18 -18.5 -28.5t-26.5 -10.5h-203q-25 0 -35 18.5zM485 580h392l-193 559h-10z M588 1599l86 307q4 16 18.5 26.5t34.5 10.5h223q27 0 38 -20.5t-1 -40.5l-180 -310q-10 -18 -22.5 -25t-28.5 -7h-119q-29 0 -42.5 15t-6.5 44z" />
<glyph unicode="&#xc2;" horiz-adv-x="1378" d="M20 18.5q-10 18.5 0 44.5l476 1328q6 20 22.5 31.5t34.5 11.5h274q18 0 35 -11.5t23 -31.5l477 -1325q10 -29 -1 -47.5t-38 -18.5h-215q-16 0 -27.5 9t-17.5 30l-107 309h-548l-105 -309q-6 -18 -18.5 -28.5t-26.5 -10.5h-203q-25 0 -35 18.5zM324.5 1558 q-11.5 18 3.5 41l188 303q12 23 26.5 32t34.5 9h220q18 0 32.5 -10t26.5 -31l188 -303q14 -20 4 -39.5t-30 -19.5h-152q-18 0 -30.5 6t-26.5 26l-123 166l-121 -166q-18 -20 -29.5 -26t-29.5 -6h-150q-20 0 -31.5 18zM485 580h392l-193 559h-10z" />
<glyph unicode="&#xc3;" horiz-adv-x="1378" d="M20 18.5q-10 18.5 0 44.5l476 1328q6 20 22.5 31.5t34.5 11.5h274q18 0 35 -11.5t23 -31.5l477 -1325q10 -29 -1 -47.5t-38 -18.5h-215q-16 0 -27.5 9t-17.5 30l-107 309h-548l-105 -309q-6 -18 -18.5 -28.5t-26.5 -10.5h-203q-25 0 -35 18.5zM297 1718q0 55 64.5 105.5 t150.5 50.5q27 0 64.5 -7.5t117.5 -29.5q63 -18 89 -23.5t42 -5.5q23 0 43.5 8t51.5 33q18 16 26 20.5t17 4.5q12 0 20 -5.5t18 -19.5l52 -76q8 -12 12 -25.5t4 -25.5q0 -55 -64.5 -105.5t-150.5 -50.5q-29 0 -70 8t-123 31q-59 16 -82.5 21.5t-37.5 5.5q-23 0 -43.5 -8 t-51.5 -33q-18 -16 -26 -20.5t-17 -4.5q-10 0 -19 5.5t-17 17.5l-54 78q-8 10 -12 23.5t-4 27.5zM485 580h392l-193 559h-10z" />
<glyph unicode="&#xc4;" horiz-adv-x="1378" d="M20 18.5q-10 18.5 0 44.5l476 1328q6 20 22.5 31.5t34.5 11.5h274q18 0 35 -11.5t23 -31.5l477 -1325q10 -29 -1 -47.5t-38 -18.5h-215q-16 0 -27.5 9t-17.5 30l-107 309h-548l-105 -309q-6 -18 -18.5 -28.5t-26.5 -10.5h-203q-25 0 -35 18.5zM305 1699q0 70 49.5 119 t118.5 49q70 0 119 -49t49 -119t-49 -119t-119 -49t-119 49.5t-49 118.5zM485 580h392l-193 559h-10zM729 1699q0 68 50 118t118 50q70 0 119 -49t49 -119t-49 -119t-119 -49q-68 0 -118 50.5t-50 117.5z" />
<glyph unicode="&#xc5;" horiz-adv-x="1378" d="M20 18.5q-10 18.5 0 44.5l476 1328q6 20 22.5 31.5t34.5 11.5h274q18 0 35 -11.5t23 -31.5l477 -1325q10 -29 -1 -47.5t-38 -18.5h-215q-16 0 -27.5 9t-17.5 30l-107 309h-548l-105 -309q-6 -18 -18.5 -28.5t-26.5 -10.5h-203q-25 0 -35 18.5zM387 1810q0 123 86 205 t213 82t213 -82t88 -205q-2 -121 -88 -203t-213 -82t-213 82t-86 203zM485 580h392l-193 559h-10zM563 1810q0 -53 35 -90t88 -37t88 37t35 90q0 55 -34.5 92t-88.5 37q-53 0 -88 -37t-35 -92z" />
<glyph unicode="&#xc6;" horiz-adv-x="1918" d="M18 61l465 1330q6 20 22.5 31.5t35.5 11.5h1282q18 0 31.5 -13.5t13.5 -31.5v-170q0 -18 -13.5 -30.5t-31.5 -12.5h-811l123 -332h411q18 0 31.5 -13.5t13.5 -31.5v-156q0 -18 -13 -31.5t-32 -13.5h-329l124 -340h482q18 0 31.5 -12.5t13.5 -30.5v-170q0 -18 -13.5 -31.5 t-31.5 -13.5h-676q-23 0 -38 11.5t-22 31.5l-104 305h-557l-102 -305q-6 -20 -19.5 -31.5t-34.5 -11.5h-213q-27 0 -37 16.5t-2 44.5zM496 586h417l-208 628z" />
<glyph unicode="&#xc7;" horiz-adv-x="1517" d="M55 717q0 315 218.5 530t535.5 215q242 0 429 -120.5t255 -323.5q6 -20 1 -30.5t-24 -14.5l-204 -51q-16 -4 -26.5 2t-18.5 26q-61 123 -167 190.5t-243 67.5q-203 0 -336 -140t-133 -351t133 -351.5t336 -140.5q137 0 242.5 67.5t167.5 190.5q8 20 18 26.5t27 2.5 l204 -51q18 -4 23.5 -14.5t-0.5 -30.5q-59 -174 -207.5 -289.5t-351.5 -146.5l-137 -279q-6 -14 -18.5 -21.5t-35.5 -7.5h-139q-25 0 -35 14.5t-2 39.5l90 260q-266 51 -434 254.5t-168 476.5z" />
<glyph unicode="&#xc8;" horiz-adv-x="1288" d="M133 45v1346q0 18 12.5 30.5t30.5 12.5h1010q18 0 30.5 -13.5t12.5 -31.5v-164q0 -18 -12.5 -30.5t-30.5 -12.5h-778v-338h405q18 0 30.5 -13.5t12.5 -31.5v-156q0 -18 -12.5 -31.5t-30.5 -13.5h-405v-346h790q18 0 31.5 -12.5t13.5 -30.5v-164q0 -18 -13 -31.5 t-32 -13.5h-1022q-18 0 -30.5 13.5t-12.5 31.5zM384 1922.5q11 20.5 38 20.5h223q20 0 33.5 -10t17.5 -27l88 -307q6 -29 -7 -44t-42 -15h-119q-16 0 -27.5 7t-23.5 25l-180 310q-12 20 -1 40.5z" />
<glyph unicode="&#xc9;" horiz-adv-x="1288" d="M133 45v1346q0 18 12.5 30.5t30.5 12.5h1010q18 0 30.5 -13.5t12.5 -31.5v-164q0 -18 -12.5 -30.5t-30.5 -12.5h-778v-338h405q18 0 30.5 -13.5t12.5 -31.5v-156q0 -18 -12.5 -31.5t-30.5 -13.5h-405v-346h790q18 0 31.5 -12.5t13.5 -30.5v-164q0 -18 -13 -31.5 t-32 -13.5h-1022q-18 0 -30.5 13.5t-12.5 31.5zM582 1599l86 307q4 16 18.5 26.5t34.5 10.5h223q27 0 38 -20.5t-1 -40.5l-180 -310q-10 -18 -22.5 -25t-28.5 -7h-119q-29 0 -42.5 15t-6.5 44z" />
<glyph unicode="&#xca;" horiz-adv-x="1288" d="M133 45v1346q0 18 12.5 30.5t30.5 12.5h1010q18 0 30.5 -13.5t12.5 -31.5v-164q0 -18 -12.5 -30.5t-30.5 -12.5h-778v-338h405q18 0 30.5 -13.5t12.5 -31.5v-156q0 -18 -12.5 -31.5t-30.5 -13.5h-405v-346h790q18 0 31.5 -12.5t13.5 -30.5v-164q0 -18 -13 -31.5 t-32 -13.5h-1022q-18 0 -30.5 13.5t-12.5 31.5zM318.5 1558q-11.5 18 3.5 41l188 303q12 23 26.5 32t34.5 9h220q18 0 32.5 -10t26.5 -31l188 -303q14 -20 4 -39.5t-30 -19.5h-152q-18 0 -30.5 6t-26.5 26l-123 166l-121 -166q-18 -20 -29.5 -26t-29.5 -6h-150 q-20 0 -31.5 18z" />
<glyph unicode="&#xcb;" horiz-adv-x="1288" d="M133 45v1346q0 18 12.5 30.5t30.5 12.5h1010q18 0 30.5 -13.5t12.5 -31.5v-164q0 -18 -12.5 -30.5t-30.5 -12.5h-778v-338h405q18 0 30.5 -13.5t12.5 -31.5v-156q0 -18 -12.5 -31.5t-30.5 -13.5h-405v-346h790q18 0 31.5 -12.5t13.5 -30.5v-164q0 -18 -13 -31.5 t-32 -13.5h-1022q-18 0 -30.5 13.5t-12.5 31.5zM299 1699q0 70 49.5 119t118.5 49q70 0 119 -49t49 -119t-49 -119t-119 -49t-119 49.5t-49 118.5zM723 1699q0 68 50 118t118 50q70 0 119 -49t49 -119t-49 -119t-119 -49q-68 0 -118 50.5t-50 117.5z" />
<glyph unicode="&#xcc;" horiz-adv-x="540" d="M-25 1922.5q11 20.5 38 20.5h223q20 0 33.5 -10t17.5 -27l88 -307q6 -29 -7 -44t-42 -15h-119q-16 0 -27.5 7t-23.5 25l-180 310q-12 20 -1 40.5zM133 45v1346q0 18 12.5 30.5t30.5 12.5h189q18 0 30.5 -12.5t12.5 -30.5v-1346q0 -18 -12.5 -31.5t-30.5 -13.5h-189 q-18 0 -30.5 13.5t-12.5 31.5z" />
<glyph unicode="&#xcd;" horiz-adv-x="540" d="M133 45v1346q0 18 12.5 30.5t30.5 12.5h189q18 0 30.5 -12.5t12.5 -30.5v-1346q0 -18 -12.5 -31.5t-30.5 -13.5h-189q-18 0 -30.5 13.5t-12.5 31.5zM172 1599l86 307q4 16 18.5 26.5t34.5 10.5h223q27 0 38 -20.5t-1 -40.5l-180 -310q-10 -18 -22.5 -25t-28.5 -7h-119 q-29 0 -42.5 15t-6.5 44z" />
<glyph unicode="&#xce;" horiz-adv-x="540" d="M-93.5 1558q-11.5 18 3.5 41l188 303q12 23 26.5 32t34.5 9h220q18 0 32.5 -10t26.5 -31l188 -303q14 -20 4 -39.5t-30 -19.5h-152q-18 0 -30.5 6t-26.5 26l-123 166l-121 -166q-18 -20 -29.5 -26t-29.5 -6h-150q-20 0 -31.5 18zM133 45v1346q0 18 12.5 30.5t30.5 12.5 h189q18 0 30.5 -12.5t12.5 -30.5v-1346q0 -18 -12.5 -31.5t-30.5 -13.5h-189q-18 0 -30.5 13.5t-12.5 31.5z" />
<glyph unicode="&#xcf;" horiz-adv-x="540" d="M-111 1699q0 70 49.5 119t118.5 49q70 0 119 -49t49 -119t-49 -119t-119 -49t-119 49.5t-49 118.5zM133 45v1346q0 18 12.5 30.5t30.5 12.5h189q18 0 30.5 -12.5t12.5 -30.5v-1346q0 -18 -12.5 -31.5t-30.5 -13.5h-189q-18 0 -30.5 13.5t-12.5 31.5zM313 1699 q0 68 50 118t118 50q70 0 119 -49t49 -119t-49 -119t-119 -49q-68 0 -118 50.5t-50 117.5z" />
<glyph unicode="&#xd0;" horiz-adv-x="1544" d="M-2 657v127q0 18 13.5 31.5t31.5 13.5h125v562q0 18 12.5 30.5t30.5 12.5h537q336 0 537.5 -195.5t201.5 -519.5t-203 -521.5t-536 -197.5h-537q-18 0 -30.5 13.5t-12.5 31.5v567h-125q-18 0 -31.5 13.5t-13.5 31.5zM442 252h310q199 0 323.5 131t124.5 336 q0 207 -125 335t-323 128h-310v-353h338q18 0 30.5 -13t12.5 -32v-127q0 -18 -12 -31.5t-31 -13.5h-338v-360z" />
<glyph unicode="&#xd1;" horiz-adv-x="1490" d="M133 43v1348q0 18 12.5 30.5t30.5 12.5h244q20 0 36.5 -8.5t26.5 -26.5l600 -942v934q0 16 12.5 29.5t28.5 13.5h189q16 0 30.5 -13.5t14.5 -29.5v-1348q0 -18 -13.5 -30.5t-31.5 -12.5h-203q-33 0 -53.5 10t-34.5 33l-614 956v-956q0 -18 -12.5 -30.5t-30.5 -12.5h-189 q-18 0 -30.5 12.5t-12.5 30.5zM356 1718q0 55 64.5 105.5t150.5 50.5q27 0 64.5 -7.5t117.5 -29.5q63 -18 89 -23.5t42 -5.5q23 0 43.5 8t51.5 33q18 16 26 20.5t17 4.5q12 0 20 -5.5t18 -19.5l52 -76q8 -12 12 -25.5t4 -25.5q0 -55 -64.5 -105.5t-150.5 -50.5q-29 0 -70 8 t-123 31q-59 16 -82.5 21.5t-37.5 5.5q-23 0 -43.5 -8t-51.5 -33q-18 -16 -26 -20.5t-17 -4.5q-10 0 -19 5.5t-17 17.5l-54 78q-8 10 -12 23.5t-4 27.5z" />
<glyph unicode="&#xd2;" horiz-adv-x="1617" d="M55 717q0 315 218.5 530t535.5 215t535.5 -215t218.5 -530t-218.5 -530.5t-535.5 -215.5t-535.5 215t-218.5 531zM342 717q0 -211 133 -351.5t334 -140.5q203 0 336 140.5t133 351.5t-133 351t-336 140q-201 0 -334 -140t-133 -351zM513 1922.5q11 20.5 38 20.5h223 q20 0 33.5 -10t17.5 -27l88 -307q6 -29 -7 -44t-42 -15h-119q-16 0 -27.5 7t-23.5 25l-180 310q-12 20 -1 40.5z" />
<glyph unicode="&#xd3;" horiz-adv-x="1617" d="M55 717q0 315 218.5 530t535.5 215t535.5 -215t218.5 -530t-218.5 -530.5t-535.5 -215.5t-535.5 215t-218.5 531zM342 717q0 -211 133 -351.5t334 -140.5q203 0 336 140.5t133 351.5t-133 351t-336 140q-201 0 -334 -140t-133 -351zM711 1599l86 307q4 16 18.5 26.5 t34.5 10.5h223q27 0 38 -20.5t-1 -40.5l-180 -310q-10 -18 -22.5 -25t-28.5 -7h-119q-29 0 -42.5 15t-6.5 44z" />
<glyph unicode="&#xd4;" horiz-adv-x="1617" d="M55 717q0 315 218.5 530t535.5 215t535.5 -215t218.5 -530t-218.5 -530.5t-535.5 -215.5t-535.5 215t-218.5 531zM342 717q0 -211 133 -351.5t334 -140.5q203 0 336 140.5t133 351.5t-133 351t-336 140q-201 0 -334 -140t-133 -351zM447.5 1558q-11.5 18 3.5 41l188 303 q12 23 26.5 32t34.5 9h220q18 0 32.5 -10t26.5 -31l188 -303q14 -20 4 -39.5t-30 -19.5h-152q-18 0 -30.5 6t-26.5 26l-123 166l-121 -166q-18 -20 -29.5 -26t-29.5 -6h-150q-20 0 -31.5 18z" />
<glyph unicode="&#xd5;" horiz-adv-x="1617" d="M55 717q0 315 218.5 530t535.5 215t535.5 -215t218.5 -530t-218.5 -530.5t-535.5 -215.5t-535.5 215t-218.5 531zM342 717q0 -211 133 -351.5t334 -140.5q203 0 336 140.5t133 351.5t-133 351t-336 140q-201 0 -334 -140t-133 -351zM420 1718q0 55 64.5 105.5t150.5 50.5 q27 0 64.5 -7.5t117.5 -29.5q63 -18 89 -23.5t42 -5.5q23 0 43.5 8t51.5 33q18 16 26 20.5t17 4.5q12 0 20 -5.5t18 -19.5l52 -76q8 -12 12 -25.5t4 -25.5q0 -55 -64.5 -105.5t-150.5 -50.5q-29 0 -70 8t-123 31q-59 16 -82.5 21.5t-37.5 5.5q-23 0 -43.5 -8t-51.5 -33 q-18 -16 -26 -20.5t-17 -4.5q-10 0 -19 5.5t-17 17.5l-54 78q-8 10 -12 23.5t-4 27.5z" />
<glyph unicode="&#xd6;" horiz-adv-x="1617" d="M55 717q0 315 218.5 530t535.5 215t535.5 -215t218.5 -530t-218.5 -530.5t-535.5 -215.5t-535.5 215t-218.5 531zM342 717q0 -211 133 -351.5t334 -140.5q203 0 336 140.5t133 351.5t-133 351t-336 140q-201 0 -334 -140t-133 -351zM428 1699q0 70 49.5 119t118.5 49 q70 0 119 -49t49 -119t-49 -119t-119 -49t-119 49.5t-49 118.5zM852 1699q0 68 50 118t118 50q70 0 119 -49t49 -119t-49 -119t-119 -49q-68 0 -118 50.5t-50 117.5z" />
<glyph unicode="&#xd7;" horiz-adv-x="1239" d="M84 350q0 19 12 31l340 340l-340 338q-12 12 -12 30.5t10 32.5l123 123q12 12 30.5 12t33.5 -12l340 -340l337 340q14 12 33 12t31 -12l123 -123q10 -14 10 -32.5t-12 -30.5l-338 -338l338 -340q12 -12 12 -30.5t-12 -31.5l-123 -122q-12 -12 -30.5 -12.5t-31.5 14.5 l-337 338l-340 -338q-12 -14 -31 -14.5t-31 12.5l-123 122q-12 12 -12 31z" />
<glyph unicode="&#xd8;" horiz-adv-x="1617" d="M55 717q0 315 218.5 530t535.5 215t535.5 -215t218.5 -530t-218.5 -530.5t-535.5 -215.5t-535.5 215t-218.5 531zM342 717q0 -172 92 -302t246 -173v950q-154 -43 -246 -173t-92 -302zM938 242q154 43 247 173t93 302t-93 302t-247 173v-950z" />
<glyph unicode="&#xd9;" horiz-adv-x="1427" d="M121 510v881q0 18 12 30.5t31 12.5h186q18 0 31.5 -13.5t13.5 -29.5v-863q0 -143 84 -225t234 -82t234.5 82t84.5 225v863q0 16 13.5 29.5t31.5 13.5h187q16 0 29.5 -13.5t13.5 -29.5v-879q0 -252 -163 -396.5t-431 -144.5q-266 0 -429 144.5t-163 394.5zM417 1922.5 q11 20.5 38 20.5h223q20 0 33.5 -10t17.5 -27l88 -307q6 -29 -7 -44t-42 -15h-119q-16 0 -27.5 7t-23.5 25l-180 310q-12 20 -1 40.5z" />
<glyph unicode="&#xda;" horiz-adv-x="1427" d="M121 510v881q0 18 12 30.5t31 12.5h186q18 0 31.5 -13.5t13.5 -29.5v-863q0 -143 84 -225t234 -82t234.5 82t84.5 225v863q0 16 13.5 29.5t31.5 13.5h187q16 0 29.5 -13.5t13.5 -29.5v-879q0 -252 -163 -396.5t-431 -144.5q-266 0 -429 144.5t-163 394.5zM615 1599 l86 307q4 16 18.5 26.5t34.5 10.5h223q27 0 38 -20.5t-1 -40.5l-180 -310q-10 -18 -22.5 -25t-28.5 -7h-119q-29 0 -42.5 15t-6.5 44z" />
<glyph unicode="&#xdb;" horiz-adv-x="1427" d="M121 510v881q0 18 12 30.5t31 12.5h186q18 0 31.5 -13.5t13.5 -29.5v-863q0 -143 84 -225t234 -82t234.5 82t84.5 225v863q0 16 13.5 29.5t31.5 13.5h187q16 0 29.5 -13.5t13.5 -29.5v-879q0 -252 -163 -396.5t-431 -144.5q-266 0 -429 144.5t-163 394.5zM351.5 1558 q-11.5 18 3.5 41l188 303q12 23 26.5 32t34.5 9h220q18 0 32.5 -10t26.5 -31l188 -303q14 -20 4 -39.5t-30 -19.5h-152q-18 0 -30.5 6t-26.5 26l-123 166l-121 -166q-18 -20 -29.5 -26t-29.5 -6h-150q-20 0 -31.5 18z" />
<glyph unicode="&#xdc;" horiz-adv-x="1427" d="M121 510v881q0 18 12 30.5t31 12.5h186q18 0 31.5 -13.5t13.5 -29.5v-863q0 -143 84 -225t234 -82t234.5 82t84.5 225v863q0 16 13.5 29.5t31.5 13.5h187q16 0 29.5 -13.5t13.5 -29.5v-879q0 -252 -163 -396.5t-431 -144.5q-266 0 -429 144.5t-163 394.5zM332 1699 q0 70 49.5 119t118.5 49q70 0 119 -49t49 -119t-49 -119t-119 -49t-119 49.5t-49 118.5zM756 1699q0 68 50 118t118 50q70 0 119 -49t49 -119t-49 -119t-119 -49q-68 0 -118 50.5t-50 117.5z" />
<glyph unicode="&#xdd;" horiz-adv-x="1323" d="M20 1413.5q9 20.5 33 20.5h236q16 0 29.5 -8.5t23.5 -24.5l324 -541h6l321 541q10 16 22.5 24.5t28.5 8.5h228q25 0 35 -19.5t-4 -44.5l-502 -815v-510q0 -18 -13.5 -31.5t-29.5 -13.5h-189q-18 0 -30.5 13.5t-12.5 31.5v510l-501 815q-14 23 -5 43.5zM564 1599l86 307 q4 16 18.5 26.5t34.5 10.5h223q27 0 38 -20.5t-1 -40.5l-180 -310q-10 -18 -22.5 -25t-28.5 -7h-119q-29 0 -42.5 15t-6.5 44z" />
<glyph unicode="&#xde;" horiz-adv-x="1257" d="M133 45v1344q0 18 12.5 31.5t30.5 13.5h189q18 0 30.5 -13.5t12.5 -31.5v-175h307q233 0 372.5 -131t139.5 -342t-139.5 -342t-372.5 -131h-307v-223q0 -18 -12.5 -31.5t-30.5 -13.5h-189q-18 0 -30.5 13.5t-12.5 31.5zM408 510h288q109 0 177.5 64.5t68.5 166.5 t-68.5 167t-177.5 65h-288v-463z" />
<glyph unicode="&#xdf;" horiz-adv-x="1142" d="M98 43v950q0 229 130 362.5t350 133.5q193 0 313.5 -104.5t120.5 -260.5q0 -66 -25.5 -133t-99.5 -170q-35 -49 -44 -68.5t-9 -31.5q0 -14 14 -33.5t63 -69.5q109 -106 148 -179.5t39 -151.5q0 -139 -103.5 -227.5t-275.5 -88.5q-35 0 -85 5.5t-81 13.5q-23 4 -33 18.5 t-6 32.5l37 141q4 14 13 20.5t22 2.5q37 -6 61.5 -9t34.5 -3q59 0 94 29.5t35 78.5q0 27 -21.5 58.5t-91.5 103.5q-90 88 -118.5 135t-28.5 90q0 35 19.5 80t82.5 135q59 84 77 123t18 68q0 66 -49.5 112.5t-129.5 46.5q-94 0 -150.5 -69.5t-56.5 -186.5v-954 q0 -16 -12 -29.5t-28 -13.5h-181q-18 0 -30.5 12.5t-12.5 30.5z" />
<glyph unicode="&#xe0;" d="M49 496q0 225 143.5 372.5t352.5 147.5q100 0 181 -41t120 -109v78q0 18 12 30.5t29 12.5h180q16 0 28.5 -12t12.5 -31v-903q0 -16 -12.5 -28.5t-28.5 -12.5h-180q-16 0 -28.5 12.5t-12.5 28.5v80q-41 -68 -123 -109t-180 -41q-207 0 -350.5 149.5t-143.5 375.5z M294 1476.5q11 20.5 38 20.5h223q20 0 33.5 -10t17.5 -27l88 -307q6 -29 -7 -44t-42 -15h-119q-16 0 -27.5 7t-23.5 25l-180 310q-12 20 -1 40.5zM315 494q0 -117 77 -198t190 -81t188.5 81t75.5 198t-75.5 196.5t-188.5 79.5t-190 -80t-77 -196z" />
<glyph unicode="&#xe1;" d="M49 496q0 225 143.5 372.5t352.5 147.5q100 0 181 -41t120 -109v78q0 18 12 30.5t29 12.5h180q16 0 28.5 -12t12.5 -31v-903q0 -16 -12.5 -28.5t-28.5 -12.5h-180q-16 0 -28.5 12.5t-12.5 28.5v80q-41 -68 -123 -109t-180 -41q-207 0 -350.5 149.5t-143.5 375.5zM315 494 q0 -117 77 -198t190 -81t188.5 81t75.5 198t-75.5 196.5t-188.5 79.5t-190 -80t-77 -196zM492 1153l86 307q4 16 18.5 26.5t34.5 10.5h223q27 0 38 -20.5t-1 -40.5l-180 -310q-10 -18 -22.5 -25t-28.5 -7h-119q-29 0 -42.5 15t-6.5 44z" />
<glyph unicode="&#xe2;" d="M49 496q0 225 143.5 372.5t352.5 147.5q100 0 181 -41t120 -109v78q0 18 12 30.5t29 12.5h180q16 0 28.5 -12t12.5 -31v-903q0 -16 -12.5 -28.5t-28.5 -12.5h-180q-16 0 -28.5 12.5t-12.5 28.5v80q-41 -68 -123 -109t-180 -41q-207 0 -350.5 149.5t-143.5 375.5z M228.5 1112q-11.5 18 3.5 41l188 303q12 23 26.5 32t34.5 9h220q18 0 32.5 -10t26.5 -31l188 -303q14 -20 4 -39.5t-30 -19.5h-152q-18 0 -30.5 6t-26.5 26l-123 166l-121 -166q-18 -20 -29.5 -26t-29.5 -6h-150q-20 0 -31.5 18zM315 494q0 -117 77 -198t190 -81t188.5 81 t75.5 198t-75.5 196.5t-188.5 79.5t-190 -80t-77 -196z" />
<glyph unicode="&#xe3;" d="M49 496q0 225 143.5 372.5t352.5 147.5q100 0 181 -41t120 -109v78q0 18 12 30.5t29 12.5h180q16 0 28.5 -12t12.5 -31v-903q0 -16 -12.5 -28.5t-28.5 -12.5h-180q-16 0 -28.5 12.5t-12.5 28.5v80q-41 -68 -123 -109t-180 -41q-207 0 -350.5 149.5t-143.5 375.5z M201 1272q0 55 64.5 105.5t150.5 50.5q27 0 64.5 -7.5t117.5 -29.5q63 -18 89 -23.5t42 -5.5q23 0 43.5 8t51.5 33q18 16 26 20.5t17 4.5q12 0 20 -5.5t18 -19.5l52 -76q8 -12 12 -25.5t4 -25.5q0 -55 -64.5 -105.5t-150.5 -50.5q-29 0 -70 8t-123 31q-59 16 -82.5 21.5 t-37.5 5.5q-23 0 -43.5 -8t-51.5 -33q-18 -16 -26 -20.5t-17 -4.5q-10 0 -19 5.5t-17 17.5l-54 78q-8 10 -12 23.5t-4 27.5zM315 494q0 -117 77 -198t190 -81t188.5 81t75.5 198t-75.5 196.5t-188.5 79.5t-190 -80t-77 -196z" />
<glyph unicode="&#xe4;" d="M49 496q0 225 143.5 372.5t352.5 147.5q100 0 181 -41t120 -109v78q0 18 12 30.5t29 12.5h180q16 0 28.5 -12t12.5 -31v-903q0 -16 -12.5 -28.5t-28.5 -12.5h-180q-16 0 -28.5 12.5t-12.5 28.5v80q-41 -68 -123 -109t-180 -41q-207 0 -350.5 149.5t-143.5 375.5z M209 1253q0 70 49.5 119t118.5 49q70 0 119 -49t49 -119t-49 -119t-119 -49t-119 49.5t-49 118.5zM315 494q0 -117 77 -198t190 -81t188.5 81t75.5 198t-75.5 196.5t-188.5 79.5t-190 -80t-77 -196zM633 1253q0 68 50 118t118 50q70 0 119 -49t49 -119t-49 -119t-119 -49 q-68 0 -118 50.5t-50 117.5z" />
<glyph unicode="&#xe5;" d="M49 496q0 225 143.5 372.5t352.5 147.5q100 0 181 -41t120 -109v78q0 18 12 30.5t29 12.5h180q16 0 28.5 -12t12.5 -31v-903q0 -16 -12.5 -28.5t-28.5 -12.5h-180q-16 0 -28.5 12.5t-12.5 28.5v80q-41 -68 -123 -109t-180 -41q-207 0 -350.5 149.5t-143.5 375.5z M290 1364q0 123 86 205t213 82t213 -82t88 -205q-2 -121 -88 -203t-213 -82t-213 82t-86 203zM315 494q0 -117 77 -198t190 -81t188.5 81t75.5 198t-75.5 196.5t-188.5 79.5t-190 -80t-77 -196zM466 1364q0 -53 35 -90t88 -37t88 37t35 90q0 55 -34.5 92t-88.5 37 q-53 0 -88 -37t-35 -92z" />
<glyph unicode="&#xe6;" horiz-adv-x="1814" d="M47 492q0 219 153.5 371.5t377.5 152.5q100 0 189 -35t159 -98q70 66 160 99.5t192 33.5q217 0 360.5 -142.5t143.5 -351.5v-49q0 -23 -11.5 -34t-35.5 -11h-705q10 -102 83 -166.5t175 -64.5q37 0 70 7t63 23q25 12 46.5 29.5t43.5 44.5q12 14 25.5 16t28.5 -6l145 -90 q16 -10 18.5 -24.5t-8.5 -28.5q-33 -43 -79 -79.5t-101 -63.5q-59 -27 -122.5 -40.5t-133.5 -13.5q-104 0 -196.5 34t-163.5 97q-68 -63 -157 -97t-189 -34q-223 0 -377 150.5t-154 370.5zM313 494q0 -117 77 -197t190 -80q63 0 117.5 23.5t90.5 66.5q-14 43 -22 89t-8 93 q0 53 8 100.5t25 88.5q-37 45 -91.5 68.5t-119.5 23.5q-113 0 -190 -79.5t-77 -196.5zM1036 596h486q-16 94 -83 150.5t-159 56.5q-90 0 -157 -57.5t-87 -149.5z" />
<glyph unicode="&#xe7;" horiz-adv-x="1060" d="M49 494q0 221 151.5 371.5t374.5 150.5q143 0 261 -62.5t184 -171.5q12 -18 6 -38.5t-25 -34.5l-100 -78q-23 -18 -45 -14t-41 26q-57 70 -111.5 98.5t-123.5 28.5q-113 0 -189 -80t-76 -196q0 -117 76 -197t189 -80q70 0 124 28.5t111 98.5q18 23 41 27t45 -15l100 -77 q18 -14 24.5 -35t-5.5 -39q-51 -84 -135.5 -141t-186.5 -80l-139 -283q-6 -14 -18.5 -21.5t-34.5 -7.5h-139q-25 0 -35 14.5t-2 39.5l92 266q-168 49 -270.5 186t-102.5 316z" />
<glyph unicode="&#xe8;" horiz-adv-x="1105" d="M49 489q0 223 148.5 375t371.5 152q217 0 360.5 -142.5t143.5 -351.5v-49q0 -23 -11 -34t-36 -11h-704q10 -102 82.5 -166.5t175.5 -64.5q37 0 69.5 7t63.5 23q25 12 46 29.5t44 44.5q12 14 25.5 16t27.5 -6l145 -90q16 -10 18.5 -24.5t-7.5 -28.5q-33 -43 -79 -80 t-102 -63q-59 -27 -122.5 -40.5t-133.5 -13.5q-227 0 -376.5 147.5t-149.5 370.5zM257 1476.5q11 20.5 38 20.5h223q20 0 33.5 -10t17.5 -27l88 -307q6 -29 -7 -44t-42 -15h-119q-16 0 -27.5 7t-23.5 25l-180 310q-12 20 -1 40.5zM328 596h485q-16 94 -82.5 150.5 t-159.5 56.5q-90 0 -156.5 -57.5t-86.5 -149.5z" />
<glyph unicode="&#xe9;" horiz-adv-x="1105" d="M49 489q0 223 148.5 375t371.5 152q217 0 360.5 -142.5t143.5 -351.5v-49q0 -23 -11 -34t-36 -11h-704q10 -102 82.5 -166.5t175.5 -64.5q37 0 69.5 7t63.5 23q25 12 46 29.5t44 44.5q12 14 25.5 16t27.5 -6l145 -90q16 -10 18.5 -24.5t-7.5 -28.5q-33 -43 -79 -80 t-102 -63q-59 -27 -122.5 -40.5t-133.5 -13.5q-227 0 -376.5 147.5t-149.5 370.5zM328 596h485q-16 94 -82.5 150.5t-159.5 56.5q-90 0 -156.5 -57.5t-86.5 -149.5zM455 1153l86 307q4 16 18.5 26.5t34.5 10.5h223q27 0 38 -20.5t-1 -40.5l-180 -310q-10 -18 -22.5 -25 t-28.5 -7h-119q-29 0 -42.5 15t-6.5 44z" />
<glyph unicode="&#xea;" horiz-adv-x="1105" d="M49 489q0 223 148.5 375t371.5 152q217 0 360.5 -142.5t143.5 -351.5v-49q0 -23 -11 -34t-36 -11h-704q10 -102 82.5 -166.5t175.5 -64.5q37 0 69.5 7t63.5 23q25 12 46 29.5t44 44.5q12 14 25.5 16t27.5 -6l145 -90q16 -10 18.5 -24.5t-7.5 -28.5q-33 -43 -79 -80 t-102 -63q-59 -27 -122.5 -40.5t-133.5 -13.5q-227 0 -376.5 147.5t-149.5 370.5zM191.5 1112q-11.5 18 3.5 41l188 303q12 23 26.5 32t34.5 9h220q18 0 32.5 -10t26.5 -31l188 -303q14 -20 4 -39.5t-30 -19.5h-152q-18 0 -30.5 6t-26.5 26l-123 166l-121 -166 q-18 -20 -29.5 -26t-29.5 -6h-150q-20 0 -31.5 18zM328 596h485q-16 94 -82.5 150.5t-159.5 56.5q-90 0 -156.5 -57.5t-86.5 -149.5z" />
<glyph unicode="&#xeb;" horiz-adv-x="1105" d="M49 489q0 223 148.5 375t371.5 152q217 0 360.5 -142.5t143.5 -351.5v-49q0 -23 -11 -34t-36 -11h-704q10 -102 82.5 -166.5t175.5 -64.5q37 0 69.5 7t63.5 23q25 12 46 29.5t44 44.5q12 14 25.5 16t27.5 -6l145 -90q16 -10 18.5 -24.5t-7.5 -28.5q-33 -43 -79 -80 t-102 -63q-59 -27 -122.5 -40.5t-133.5 -13.5q-227 0 -376.5 147.5t-149.5 370.5zM172 1253q0 70 49.5 119t118.5 49q70 0 119 -49t49 -119t-49 -119t-119 -49t-119 49.5t-49 118.5zM328 596h485q-16 94 -82.5 150.5t-159.5 56.5q-90 0 -156.5 -57.5t-86.5 -149.5zM596 1253 q0 68 50 118t118 50q70 0 119 -49t49 -119t-49 -119t-119 -49q-68 0 -118 50.5t-50 117.5z" />
<glyph unicode="&#xec;" horiz-adv-x="460" d="M-64 1476.5q11 20.5 38 20.5h223q20 0 33.5 -10t17.5 -27l88 -307q6 -29 -7 -44t-42 -15h-119q-16 0 -27.5 7t-23.5 25l-180 310q-12 20 -1 40.5zM98 43v901q0 18 12.5 30.5t30.5 12.5h178q18 0 30.5 -12t12.5 -31v-901q0 -18 -12.5 -30.5t-30.5 -12.5h-178 q-18 0 -30.5 12.5t-12.5 30.5z" />
<glyph unicode="&#xed;" horiz-adv-x="460" d="M98 43v901q0 18 12.5 30.5t30.5 12.5h178q18 0 30.5 -12t12.5 -31v-901q0 -18 -12.5 -30.5t-30.5 -12.5h-178q-18 0 -30.5 12.5t-12.5 30.5zM131 1153l86 307q4 16 18.5 26.5t34.5 10.5h223q27 0 38 -20.5t-1 -40.5l-180 -310q-10 -18 -22.5 -25t-28.5 -7h-119 q-29 0 -42.5 15t-6.5 44z" />
<glyph unicode="&#xee;" horiz-adv-x="460" d="M-132.5 1112q-11.5 18 3.5 41l188 303q12 23 26.5 32t34.5 9h220q18 0 32.5 -10t26.5 -31l188 -303q14 -20 4 -39.5t-30 -19.5h-152q-18 0 -30.5 6t-26.5 26l-123 166l-121 -166q-18 -20 -29.5 -26t-29.5 -6h-150q-20 0 -31.5 18zM98 43v901q0 18 12.5 30.5t30.5 12.5 h178q18 0 30.5 -12t12.5 -31v-901q0 -18 -12.5 -30.5t-30.5 -12.5h-178q-18 0 -30.5 12.5t-12.5 30.5z" />
<glyph unicode="&#xef;" horiz-adv-x="460" d="M-150 1253q0 70 49.5 119t118.5 49q70 0 119 -49t49 -119t-49 -119t-119 -49t-119 49.5t-49 118.5zM98 43v901q0 18 12.5 30.5t30.5 12.5h178q18 0 30.5 -12t12.5 -31v-901q0 -18 -12.5 -30.5t-30.5 -12.5h-178q-18 0 -30.5 12.5t-12.5 30.5zM274 1253q0 68 50 118 t118 50q70 0 119 -49t49 -119t-49 -119t-119 -49q-68 0 -118 50.5t-50 117.5z" />
<glyph unicode="&#xf0;" horiz-adv-x="1193" d="M49 498q0 211 140.5 357t347.5 146q70 0 137 -22.5t112 -63.5q-39 55 -88 117t-108 127l-180 -67q-20 -8 -35 -3t-21 23l-24 70q-8 20 -1 35.5t25 21.5l115 43q-43 43 -83 80t-73 63q-20 20 -11 43t40 23l205 4q25 0 39 -5t26 -15q39 -33 62.5 -54.5t46.5 -44.5l186 72 q18 8 33.5 2t22.5 -23l24 -69q8 -20 1 -35.5t-25 -22.5l-127 -47q150 -176 227.5 -356t77.5 -352q0 -250 -152.5 -412t-392.5 -162q-231 0 -389 152.5t-158 374.5zM319 494q0 -119 76 -199t191 -80t190.5 80t75.5 199t-75.5 197.5t-190.5 78.5t-191 -79t-76 -197z" />
<glyph unicode="&#xf1;" horiz-adv-x="1202" d="M98 41v903q0 18 12.5 30.5t28.5 12.5h180q16 0 29.5 -12t13.5 -27v-78q49 68 135.5 107t192.5 39q190 0 307 -119t117 -309v-549q0 -16 -12 -27.5t-31 -11.5h-178q-18 0 -30.5 11.5t-12.5 27.5v477q0 119 -63.5 187.5t-176.5 68.5q-111 0 -179.5 -70.5t-68.5 -185.5v-477 q0 -16 -13 -27.5t-30 -11.5h-180q-16 0 -28.5 12.5t-12.5 28.5zM174 1276q0 55 64.5 105.5t150.5 50.5q27 0 64.5 -7.5t117.5 -29.5q63 -18 89 -23.5t42 -5.5q23 0 43.5 8t51.5 33q18 16 26 20.5t17 4.5q12 0 20 -5.5t18 -19.5l52 -76q8 -12 12 -25.5t4 -25.5 q0 -55 -64.5 -105.5t-150.5 -50.5q-29 0 -70 8t-123 31q-59 16 -82.5 21.5t-37.5 5.5q-23 0 -43.5 -8t-51.5 -33q-18 -16 -26 -20.5t-17 -4.5q-10 0 -19 5.5t-17 17.5l-54 78q-8 10 -12 23.5t-4 27.5z" />
<glyph unicode="&#xf2;" horiz-adv-x="1155" d="M47 492q0 219 153.5 371.5t377.5 152.5q223 0 376.5 -152.5t153.5 -371.5t-153.5 -370t-376.5 -151t-377 150.5t-154 370.5zM282 1476.5q11 20.5 38 20.5h223q20 0 33.5 -10t17.5 -27l88 -307q6 -29 -7 -44t-42 -15h-119q-16 0 -27.5 7t-23.5 25l-180 310q-12 20 -1 40.5 zM313 494q0 -117 76 -197t189 -80t188.5 80t75.5 197t-75.5 196.5t-188.5 79.5t-189 -80t-76 -196z" />
<glyph unicode="&#xf3;" horiz-adv-x="1155" d="M47 492q0 219 153.5 371.5t377.5 152.5q223 0 376.5 -152.5t153.5 -371.5t-153.5 -370t-376.5 -151t-377 150.5t-154 370.5zM313 494q0 -117 76 -197t189 -80t188.5 80t75.5 197t-75.5 196.5t-188.5 79.5t-189 -80t-76 -196zM480 1153l86 307q4 16 18.5 26.5t34.5 10.5 h223q27 0 38 -20.5t-1 -40.5l-180 -310q-10 -18 -22.5 -25t-28.5 -7h-119q-29 0 -42.5 15t-6.5 44z" />
<glyph unicode="&#xf4;" horiz-adv-x="1155" d="M47 492q0 219 153.5 371.5t377.5 152.5q223 0 376.5 -152.5t153.5 -371.5t-153.5 -370t-376.5 -151t-377 150.5t-154 370.5zM216.5 1112q-11.5 18 3.5 41l188 303q12 23 26.5 32t34.5 9h220q18 0 32.5 -10t26.5 -31l188 -303q14 -20 4 -39.5t-30 -19.5h-152 q-18 0 -30.5 6t-26.5 26l-123 166l-121 -166q-18 -20 -29.5 -26t-29.5 -6h-150q-20 0 -31.5 18zM313 494q0 -117 76 -197t189 -80t188.5 80t75.5 197t-75.5 196.5t-188.5 79.5t-189 -80t-76 -196z" />
<glyph unicode="&#xf5;" horiz-adv-x="1155" d="M47 492q0 219 153.5 371.5t377.5 152.5q223 0 376.5 -152.5t153.5 -371.5t-153.5 -370t-376.5 -151t-377 150.5t-154 370.5zM189 1272q0 55 64.5 105.5t150.5 50.5q27 0 64.5 -7.5t117.5 -29.5q63 -18 89 -23.5t42 -5.5q23 0 43.5 8t51.5 33q18 16 26 20.5t17 4.5 q12 0 20 -5.5t18 -19.5l52 -76q8 -12 12 -25.5t4 -25.5q0 -55 -64.5 -105.5t-150.5 -50.5q-29 0 -70 8t-123 31q-59 16 -82.5 21.5t-37.5 5.5q-23 0 -43.5 -8t-51.5 -33q-18 -16 -26 -20.5t-17 -4.5q-10 0 -19 5.5t-17 17.5l-54 78q-8 10 -12 23.5t-4 27.5zM313 494 q0 -117 76 -197t189 -80t188.5 80t75.5 197t-75.5 196.5t-188.5 79.5t-189 -80t-76 -196z" />
<glyph unicode="&#xf6;" horiz-adv-x="1155" d="M47 492q0 219 153.5 371.5t377.5 152.5q223 0 376.5 -152.5t153.5 -371.5t-153.5 -370t-376.5 -151t-377 150.5t-154 370.5zM196 1253q0 70 49.5 119t118.5 49q70 0 119 -49t49 -119t-49 -119t-119 -49t-119 49.5t-49 118.5zM313 494q0 -117 76 -197t189 -80t188.5 80 t75.5 197t-75.5 196.5t-188.5 79.5t-189 -80t-76 -196zM620 1253q0 68 50 118t118 50q70 0 119 -49t49 -119t-49 -119t-119 -49q-68 0 -118 50.5t-50 117.5z" />
<glyph unicode="&#xf7;" horiz-adv-x="1185" d="M68 635v172q0 18 13 31.5t32 13.5h960q18 0 31.5 -13.5t13.5 -31.5v-172q0 -18 -13 -31.5t-32 -13.5h-960q-18 0 -31.5 13t-13.5 32zM410 297q0 76 53 128t129 52t128 -52t52 -128t-52 -128t-128 -52t-129 52t-53 128zM410 1137q0 76 53 128t129 52t128 -52t52 -128 t-52 -128.5t-128 -52.5t-129 52.5t-53 128.5z" />
<glyph unicode="&#xf8;" horiz-adv-x="1155" d="M47 492q0 219 153.5 371.5t377.5 152.5q223 0 376.5 -152.5t153.5 -371.5t-153.5 -370t-376.5 -151t-377 150.5t-154 370.5zM313 494q0 -86 45 -157t119 -99v512q-74 -29 -119 -99.5t-45 -156.5zM678 238q74 29 119 99.5t45 156.5t-45 156.5t-119 99.5v-512z" />
<glyph unicode="&#xf9;" horiz-adv-x="1163" d="M88 391v557q0 14 13.5 26.5t29.5 12.5h178q16 0 29.5 -12.5t13.5 -26.5v-512q0 -115 57.5 -177t163.5 -62q104 0 166 64.5t62 170.5v516q0 14 12 26.5t29 12.5h180q18 0 30.5 -12t12.5 -31v-903q0 -16 -12.5 -28.5t-30.5 -12.5h-180q-16 0 -28.5 11.5t-12.5 27.5v78 q-55 -74 -130 -110t-177 -36q-186 0 -296 115t-110 305zM274 1476.5q11 20.5 38 20.5h223q20 0 33.5 -10t17.5 -27l88 -307q6 -29 -7 -44t-42 -15h-119q-16 0 -27.5 7t-23.5 25l-180 310q-12 20 -1 40.5z" />
<glyph unicode="&#xfa;" horiz-adv-x="1163" d="M88 391v557q0 14 13.5 26.5t29.5 12.5h178q16 0 29.5 -12.5t13.5 -26.5v-512q0 -115 57.5 -177t163.5 -62q104 0 166 64.5t62 170.5v516q0 14 12 26.5t29 12.5h180q18 0 30.5 -12t12.5 -31v-903q0 -16 -12.5 -28.5t-30.5 -12.5h-180q-16 0 -28.5 11.5t-12.5 27.5v78 q-55 -74 -130 -110t-177 -36q-186 0 -296 115t-110 305zM471 1153l86 307q4 16 18.5 26.5t34.5 10.5h223q27 0 38 -20.5t-1 -40.5l-180 -310q-10 -18 -22.5 -25t-28.5 -7h-119q-29 0 -42.5 15t-6.5 44z" />
<glyph unicode="&#xfb;" horiz-adv-x="1163" d="M88 391v557q0 14 13.5 26.5t29.5 12.5h178q16 0 29.5 -12.5t13.5 -26.5v-512q0 -115 57.5 -177t163.5 -62q104 0 166 64.5t62 170.5v516q0 14 12 26.5t29 12.5h180q18 0 30.5 -12t12.5 -31v-903q0 -16 -12.5 -28.5t-30.5 -12.5h-180q-16 0 -28.5 11.5t-12.5 27.5v78 q-55 -74 -130 -110t-177 -36q-186 0 -296 115t-110 305zM205.5 1112q-11.5 18 3.5 41l188 303q12 23 26.5 32t34.5 9h220q18 0 32.5 -10t26.5 -31l188 -303q14 -20 4 -39.5t-30 -19.5h-152q-18 0 -30.5 6t-26.5 26l-123 166l-121 -166q-18 -20 -29.5 -26t-29.5 -6h-150 q-20 0 -31.5 18z" />
<glyph unicode="&#xfc;" horiz-adv-x="1163" d="M88 391v557q0 14 13.5 26.5t29.5 12.5h178q16 0 29.5 -12.5t13.5 -26.5v-512q0 -115 57.5 -177t163.5 -62q104 0 166 64.5t62 170.5v516q0 14 12 26.5t29 12.5h180q18 0 30.5 -12t12.5 -31v-903q0 -16 -12.5 -28.5t-30.5 -12.5h-180q-16 0 -28.5 11.5t-12.5 27.5v78 q-55 -74 -130 -110t-177 -36q-186 0 -296 115t-110 305zM188 1253q0 70 49.5 119t118.5 49q70 0 119 -49t49 -119t-49 -119t-119 -49t-119 49.5t-49 118.5zM612 1253q0 68 50 118t118 50q70 0 119 -49t49 -119t-49 -119t-119 -49q-68 0 -118 50.5t-50 117.5z" />
<glyph unicode="&#xfd;" horiz-adv-x="1060" d="M1 -334q-1 21 13 39l64 88q16 23 38.5 25t45.5 -15q31 -25 61.5 -36t63.5 -11q45 0 79.5 28t53.5 77l49 139h-92q-18 0 -31.5 10t-19.5 31l-299 883q-8 31 3 47t40 16h211q16 0 27 -11t18 -32l215 -704l202 704q6 20 19.5 31.5t34.5 11.5h202q27 0 37.5 -17.5t-0.5 -45.5 l-356 -1104q-47 -141 -142.5 -216t-232.5 -75q-86 0 -161.5 26.5t-127.5 75.5q-14 14 -15 35zM432 1153l86 307q4 16 18.5 26.5t34.5 10.5h223q27 0 38 -20.5t-1 -40.5l-180 -310q-10 -18 -22.5 -25t-28.5 -7h-119q-29 0 -42.5 15t-6.5 44z" />
<glyph unicode="&#xfe;" d="M98 -399v1790q0 18 12.5 30.5t28.5 12.5h183q16 0 28 -12.5t12 -30.5v-525q47 70 128 110t180 40q207 0 347 -147.5t140 -372.5q0 -227 -141.5 -376t-349.5 -149q-94 0 -177 38t-127 102v-510q0 -16 -12 -28.5t-28 -12.5h-183q-16 0 -28.5 12t-12.5 29zM360 494 q0 -117 77 -198t190 -81t188.5 80t75.5 199q0 117 -75.5 196.5t-188.5 79.5t-190 -80t-77 -196z" />
<glyph unicode="&#xff;" horiz-adv-x="1060" d="M1 -334q-1 21 13 39l64 88q16 23 38.5 25t45.5 -15q31 -25 61.5 -36t63.5 -11q45 0 79.5 28t53.5 77l49 139h-92q-18 0 -31.5 10t-19.5 31l-299 883q-8 31 3 47t40 16h211q16 0 27 -11t18 -32l215 -704l202 704q6 20 19.5 31.5t34.5 11.5h202q27 0 37.5 -17.5t-0.5 -45.5 l-356 -1104q-47 -141 -142.5 -216t-232.5 -75q-86 0 -161.5 26.5t-127.5 75.5q-14 14 -15 35zM149 1253q0 70 49.5 119t118.5 49q70 0 119 -49t49 -119t-49 -119t-119 -49t-119 49.5t-49 118.5zM573 1253q0 68 50 118t118 50q70 0 119 -49t49 -119t-49 -119t-119 -49 q-68 0 -118 50.5t-50 117.5z" />
<glyph unicode="&#x152;" horiz-adv-x="2424" d="M55 717q0 315 211 530t520 215q154 0 281 -59.5t195 -163.5v152q0 16 13 29.5t32 13.5h1022q18 0 30.5 -13.5t12.5 -31.5v-164q0 -18 -12.5 -30.5t-30.5 -12.5h-793v-338h406q18 0 31.5 -13.5t13.5 -31.5v-156q0 -18 -13.5 -31.5t-31.5 -13.5h-406v-346h793 q18 0 30.5 -12.5t12.5 -30.5v-164q0 -18 -12.5 -31.5t-30.5 -13.5h-1022q-18 0 -31.5 13.5t-13.5 31.5v150q-66 -104 -191 -164t-278 -60q-313 0 -525.5 215t-212.5 531zM342 717q0 -211 134 -352.5t335 -141.5t333 141.5t132 352.5t-132 352t-333 141t-335 -141t-134 -352z " />
<glyph unicode="&#x153;" horiz-adv-x="1900" d="M47 492q0 219 153.5 371.5t377.5 152.5q115 0 218 -45t177 -127q72 82 173 127t218 45q217 0 360.5 -142.5t143.5 -351.5v-49q0 -23 -11.5 -34t-35.5 -11h-705q10 -102 83 -166.5t175 -64.5q37 0 70 7t63 23q25 12 46.5 29.5t43.5 44.5q12 14 25.5 16t28.5 -6l145 -90 q16 -10 18.5 -24.5t-8.5 -28.5q-33 -43 -79 -79.5t-101 -63.5q-59 -27 -122.5 -40.5t-133.5 -13.5q-119 0 -222.5 44t-174.5 126q-78 -82 -180.5 -126t-214.5 -44q-223 0 -377 150.5t-154 370.5zM313 494q0 -117 76 -197t189 -80t188.5 80t75.5 197t-75.5 196.5t-188.5 79.5 t-189 -80t-76 -196zM1122 596h486q-16 94 -83 150.5t-159 56.5q-90 0 -157 -57.5t-87 -149.5z" />
<glyph unicode="&#x178;" horiz-adv-x="1323" d="M20 1413.5q9 20.5 33 20.5h236q16 0 29.5 -8.5t23.5 -24.5l324 -541h6l321 541q10 16 22.5 24.5t28.5 8.5h228q25 0 35 -19.5t-4 -44.5l-502 -815v-510q0 -18 -13.5 -31.5t-29.5 -13.5h-189q-18 0 -30.5 13.5t-12.5 31.5v510l-501 815q-14 23 -5 43.5zM280 1699 q0 70 49.5 119t118.5 49q70 0 119 -49t49 -119t-49 -119t-119 -49t-119 49.5t-49 118.5zM704 1699q0 68 50 118t118 50q70 0 119 -49t49 -119t-49 -119t-119 -49q-68 0 -118 50.5t-50 117.5z" />
<glyph unicode="&#x2c6;" horiz-adv-x="847" d="M62.5 1112q-11.5 18 3.5 41l188 303q12 23 26.5 32t34.5 9h220q18 0 32.5 -10t26.5 -31l188 -303q14 -20 4 -39.5t-30 -19.5h-152q-18 0 -30.5 6t-26.5 26l-123 166l-121 -166q-18 -20 -29.5 -26t-29.5 -6h-150q-20 0 -31.5 18z" />
<glyph unicode="&#x2dc;" horiz-adv-x="849" d="M39 1276q0 55 64.5 105.5t150.5 50.5q27 0 64.5 -7.5t117.5 -29.5q63 -18 89 -23.5t42 -5.5q23 0 43.5 8t51.5 33q18 16 26 20.5t17 4.5q12 0 20 -5.5t18 -19.5l52 -76q8 -12 12 -25.5t4 -25.5q0 -55 -64.5 -105.5t-150.5 -50.5q-29 0 -70 8t-123 31q-59 16 -82.5 21.5 t-37.5 5.5q-23 0 -43.5 -8t-51.5 -33q-18 -16 -26 -20.5t-17 -4.5q-10 0 -19 5.5t-17 17.5l-54 78q-8 10 -12 23.5t-4 27.5z" />
<glyph unicode="&#x2000;" horiz-adv-x="1048" />
<glyph unicode="&#x2001;" horiz-adv-x="2097" />
<glyph unicode="&#x2002;" horiz-adv-x="1048" />
<glyph unicode="&#x2003;" horiz-adv-x="2097" />
<glyph unicode="&#x2004;" horiz-adv-x="699" />
<glyph unicode="&#x2005;" horiz-adv-x="524" />
<glyph unicode="&#x2006;" horiz-adv-x="349" />
<glyph unicode="&#x2007;" horiz-adv-x="349" />
<glyph unicode="&#x2008;" horiz-adv-x="262" />
<glyph unicode="&#x2009;" horiz-adv-x="419" />
<glyph unicode="&#x200a;" horiz-adv-x="116" />
<glyph unicode="&#x2010;" horiz-adv-x="768" d="M102 500v184q0 18 12.5 31.5t30.5 13.5h476q18 0 31.5 -13.5t13.5 -31.5v-184q0 -18 -13.5 -31.5t-31.5 -13.5h-476q-18 0 -30.5 13t-12.5 32z" />
<glyph unicode="&#x2011;" horiz-adv-x="768" d="M102 500v184q0 18 12.5 31.5t30.5 13.5h476q18 0 31.5 -13.5t13.5 -31.5v-184q0 -18 -13.5 -31.5t-31.5 -13.5h-476q-18 0 -30.5 13t-12.5 32z" />
<glyph unicode="&#x2012;" horiz-adv-x="768" d="M102 500v184q0 18 12.5 31.5t30.5 13.5h476q18 0 31.5 -13.5t13.5 -31.5v-184q0 -18 -13.5 -31.5t-31.5 -13.5h-476q-18 0 -30.5 13t-12.5 32z" />
<glyph unicode="&#x2013;" horiz-adv-x="1308" d="M102 500v184q0 18 12.5 31.5t30.5 13.5h1016q18 0 31.5 -13.5t13.5 -31.5v-184q0 -18 -13.5 -31.5t-31.5 -13.5h-1016q-18 0 -30.5 13t-12.5 32z" />
<glyph unicode="&#x2014;" horiz-adv-x="2033" d="M102 500v184q0 18 12.5 31.5t30.5 13.5h1741q18 0 31.5 -13.5t13.5 -31.5v-184q0 -18 -13.5 -31.5t-31.5 -13.5h-1741q-18 0 -30.5 13t-12.5 32z" />
<glyph unicode="&#x2018;" horiz-adv-x="528" d="M59 1030q0 98 68 208t172 194q31 25 57.5 29.5t49.5 -9.5l26 -18q20 -14 24.5 -32t-7.5 -36l-117 -180q51 -25 80.5 -70t29.5 -98q0 -80 -55 -134.5t-135 -54.5q-82 0 -137.5 57.5t-55.5 143.5z" />
<glyph unicode="&#x2019;" horiz-adv-x="532" d="M83 890q-3 18 9 36l115 180q-51 25 -81 70t-30 98q0 80 55.5 134t135.5 54q82 0 138 -57t56 -143q0 -96 -66.5 -205t-172.5 -197q-33 -25 -58.5 -30t-48.5 10l-29 18q-20 14 -23 32z" />
<glyph unicode="&#x201a;" horiz-adv-x="538" d="M63 -232.5q-5 17.5 9 35.5l114 183q-49 23 -78.5 67.5t-29.5 98.5q0 80 55 135t135 55t136.5 -58.5t56.5 -144.5q0 -96 -68.5 -206.5t-171.5 -194.5q-35 -25 -59.5 -29t-46.5 10l-27 17q-20 14 -25 31.5z" />
<glyph unicode="&#x201c;" horiz-adv-x="980" d="M59 1030q0 98 68 208t172 194q31 25 57.5 29.5t49.5 -9.5l26 -18q20 -14 24.5 -32t-7.5 -36l-117 -180q51 -25 80.5 -70t29.5 -98q0 -80 -55 -134.5t-135 -54.5q-82 0 -137.5 57.5t-55.5 143.5zM510 1030q0 98 67.5 208t172.5 194q33 27 58.5 30.5t47.5 -10.5l27 -18 q20 -14 25 -32t-9 -36l-117 -180q51 -25 81 -70t30 -98q0 -80 -55.5 -134.5t-135.5 -54.5q-82 0 -137 57.5t-55 143.5z" />
<glyph unicode="&#x201d;" horiz-adv-x="983" d="M83 890q-3 18 9 36l115 180q-51 25 -81 70t-30 98q0 80 55.5 134t135.5 54q82 0 138 -57t56 -143q0 -96 -66.5 -205t-172.5 -197q-33 -25 -58.5 -30t-48.5 10l-29 18q-20 14 -23 32zM534 890q-3 18 9 36l114 180q-51 25 -80.5 70t-29.5 98q0 78 55 133t135 55 q82 0 138.5 -57t56.5 -143q0 -98 -67.5 -208t-172.5 -194q-33 -27 -58.5 -31t-47.5 11l-29 18q-20 14 -23 32z" />
<glyph unicode="&#x201e;" horiz-adv-x="989" d="M63 -232.5q-3 17.5 9 35.5l114 183q-51 23 -80.5 67.5t-29.5 98.5q0 80 55 135t135 55q82 0 138.5 -57.5t56.5 -145.5q0 -96 -67.5 -205.5t-172.5 -195.5q-35 -25 -59.5 -29t-46.5 10l-29 17q-20 14 -23 31.5zM513.5 -232.5q-5.5 17.5 8.5 35.5l115 183q-51 23 -81 67.5 t-30 98.5q0 80 55.5 135t135.5 55q82 0 138 -57.5t56 -145.5q0 -96 -68.5 -206.5t-170.5 -194.5q-35 -25 -59.5 -29t-47.5 10l-26 17q-20 14 -25.5 31.5z" />
<glyph unicode="&#x2022;" horiz-adv-x="755" d="M119 723q0 106 75.5 182t182.5 76q106 0 183 -76t77 -182t-76 -182t-184 -76q-106 0 -182 75.5t-76 182.5z" />
<glyph unicode="&#x2026;" horiz-adv-x="1697" d="M74 152q0 76 52 129t128 53t129 -53t53 -129q0 -74 -53 -127.5t-129 -53.5q-74 0 -127 53.5t-53 127.5zM668 152q0 76 53 129t129 53t128 -53t52 -129q0 -74 -53 -127.5t-127 -53.5q-76 0 -129 53.5t-53 127.5zM1264 152q0 76 52 129t128 53t128 -53t52 -129 q0 -74 -53 -127.5t-127 -53.5t-127 53.5t-53 127.5z" />
<glyph unicode="&#x202f;" horiz-adv-x="419" />
<glyph unicode="&#x2039;" horiz-adv-x="636" d="M59.5 501.5q-0.5 18.5 8.5 33.5l229 407q10 18 24.5 26.5t36.5 8.5h177q18 0 26 -17.5t0 -35.5l-211 -424l211 -420q8 -18 0 -35.5t-26 -17.5h-177q-23 0 -37 8t-24 26l-229 408q-8 14 -8.5 32.5z" />
<glyph unicode="&#x203a;" horiz-adv-x="636" d="M75 959.5q9 17.5 27 17.5h177q23 0 37 -8t24 -27l229 -407q8 -14 8 -33t-8 -33l-229 -408q-10 -18 -24.5 -26t-36.5 -8h-177q-18 0 -26 17t0 36l209 420l-209 424q-10 18 -1 35.5z" />
<glyph unicode="&#x205f;" horiz-adv-x="524" />
<glyph unicode="&#x20ac;" horiz-adv-x="1421" d="M63 522v76q0 18 13.5 31.5t32.5 13.5h67q-2 27 -3 43t-1 31q0 12 1 27.5l3 46.5h-67q-18 0 -32 13t-14 30v77q0 18 13.5 30.5t32.5 12.5h98q53 238 226 373t425 135q150 0 283 -54t196 -140q10 -18 10.5 -37t-12.5 -31l-100 -100q-23 -23 -47.5 -22t-48.5 26 q-57 55 -127 81.5t-154 26.5q-125 0 -215 -66.5t-131 -191.5h428q18 0 31.5 -12t13.5 -31v-77q0 -16 -13.5 -29.5t-31.5 -13.5h-477l-3 -46.5t-1 -27.5q0 -14 1 -30.5t3 -43.5h477q18 0 31.5 -13.5t13.5 -31.5v-76q0 -18 -13.5 -30.5t-31.5 -12.5h-428q41 -121 133 -189.5 t213 -68.5q82 0 150.5 26.5t128.5 82.5q25 25 49 25.5t47 -21.5l100 -101q12 -12 12 -30.5t-10 -36.5q-63 -86 -196 -140.5t-283 -54.5q-246 0 -422 137.5t-227 370.5h-98q-18 0 -32 12.5t-14 30.5z" />
<glyph unicode="&#x2122;" horiz-adv-x="1744" d="M63 1323v84q0 10 8.5 18.5t18.5 8.5h600q10 0 17.5 -8.5t7.5 -18.5v-84q0 -12 -7.5 -19.5t-17.5 -7.5h-223v-544q0 -12 -7 -19.5t-20 -7.5h-102q-12 0 -19.5 7t-7.5 20v544h-221q-12 0 -19.5 7.5t-7.5 19.5zM807 750v657q0 10 8 18.5t19 8.5h180q10 0 20.5 -7.5 t16.5 -19.5l161 -356l164 356q6 12 15.5 19.5t19.5 7.5h174q10 0 18.5 -8.5t8.5 -18.5v-657q0 -10 -8.5 -17.5t-18.5 -7.5h-102q-10 0 -17.5 7t-7.5 20v499l-166 -352q-6 -14 -15 -20.5t-22 -6.5h-92q-12 0 -20 6.5t-17 20.5l-163 352v-499q0 -12 -7.5 -19.5t-19.5 -7.5 h-102q-10 0 -18.5 7t-8.5 18z" />
<glyph unicode="&#x25fc;" horiz-adv-x="983" d="M0 0v983h983v-983h-983z" />
</font>
</defs>
</svg>
